<?xml version="1.0" standalone="no"?>
<!DOCTYPE svg PUBLIC "-//W3C//DTD SVG 1.1//EN" "http://www.w3.org/Graphics/SVG/1.1/DTD/svg11.dtd">
<svg xmlns="http://www.w3.org/2000/svg">
<metadata>Generated by Fontastic.me</metadata>
<defs>
<font id="uaeu" horiz-adv-x="512">
<font-face font-family="uaeu" units-per-em="512" ascent="480" descent="-32"/>
<missing-glyph horiz-adv-x="512" />

<glyph glyph-name="lineicons4-a" unicode="&#97;" d="M223 330c-2 5-9 5-12 0l-66-143c-2-3 0-7 3-9 3-1 7 0 8 4l23 49 76 0 23-49c1-3 4-4 6-4 1 0 2 0 3 0 3 2 4 6 3 9z m-38-86l32 69 32-69z m160 29l-51 0c-3 0-6-3-6-7 0-3 3-6 6-6l51 0c3 0 6 3 6 6 0 4-3 7-6 7z"/>
<glyph glyph-name="lineicons4-a-1" unicode="&#98;" d="M217 355c-2 4-9 4-11 0l-90-193c-1-3 0-7 3-8 3-2 7 0 9 3l31 68 105 0 31-68c1-2 4-4 6-4 1 0 2 1 3 1 3 1 4 5 3 8z m-52-117l47 99 46-99z m236 38l-37 0 0 37c0 3-3 6-6 6-4 0-7-3-7-6l0-37-36 0c-4 0-7-3-7-6 0-4 3-7 7-7l36 0 0-36c0-4 3-7 7-7 3 0 6 3 6 7l0 36 37 0c3 0 6 3 6 7 0 3-3 6-6 6z"/>
<glyph glyph-name="lineicons4-app5" unicode="&#99;" d="M270 109c0-8-6-14-13-14-7 0-13 6-13 14 0 7 6 13 13 13 7 0 13-6 13-13z m48 291c0-5-3-9-8-9-5 0-8 4-8 9 0 4 3 8 8 8 5 0 8-4 8-8z m-48 6l-27 0c-4 0-6-3-6-6 0-4 2-7 6-7l27 0c4 0 7 3 7 7 0 3-3 6-7 6z m61 34l-148 0c-15 0-26-12-26-26l0-316c0-14 11-26 26-26l148 0c15 0 26 12 26 26l0 316c0 14-11 26-26 26z m14-342c0-7-6-13-14-13l-148 0c-7 0-13 6-13 13l0 316c0 7 6 13 13 13l148 0c8 0 14-6 14-13z"/>
<glyph glyph-name="lineicons4-arrowright5" unicode="&#100;" d="M206 147c-1 0-3 1-4 2-3 3-3 7 0 9l110 110-110 110c-3 2-3 6 0 9 2 3 6 3 9 0l114-114c1-2 2-3 2-5 0-2-1-3-2-4l-114-115c-1-1-3-2-5-2z"/>
<glyph glyph-name="lineicons4-audio" unicode="&#101;" d="M327 309c-3-2-3-6 0-9 12-12 19-29 19-47 0-18-7-34-20-47-3-2-3-6 0-9 1-1 3-2 4-2 2 0 4 1 5 2 15 15 23 35 24 56 0 21-8 41-23 56-3 3-7 3-9 0z m46 33c-2 3-6 3-9 0-2-2-2-6 0-9 19-19 30-46 30-73 0-28-11-54-31-73-3-3-3-7 0-9 1-1 3-2 4-2 2 0 4 0 5 2 22 22 34 51 35 82 0 31-12 60-34 82z m-115 37l-77-72c-2-1-4-2-7-2l-48 0c-7 0-12-5-12-12l0-74c0-7 5-12 12-12l48 0c3 0 5-1 7-2l77-72c8-5 18 1 18 10l0 226c0 9-10 15-18 10z"/>
<glyph glyph-name="lineicons4-calendar5" unicode="&#102;" d="M369 377l-31 0 0 19c0 4-3 7-6 7-4 0-7-3-7-7l0-19-64 0 0 19c0 4-3 7-6 7-4 0-7-3-7-7l0-19-64 0 0 19c0 4-3 7-6 7-4 0-7-3-7-7l0-19-34 0c-18 0-32-15-32-32l0-204c0-17 14-32 32-32l231 0c18 0 33 15 33 32l0 204c0 17-15 32-32 32z m19-236c0-10-9-19-20-19l-231 0c-11 0-19 9-19 19l0 204c0 10 8 19 19 19l34 0 0-15c0-4 3-7 7-7 3 0 6 3 6 7l0 15 64 0 0-15c0-4 3-7 7-7 3 0 6 3 6 7l0 15 64 0 0-15c0-4 3-7 7-7 3 0 6 3 6 7l0 15 30 0c11 0 20-9 20-19z m-195 141c0-8-6-14-14-14-8 0-14 6-14 14 0 7 6 14 14 14 8 0 14-7 14-14z m76 0c0-8-7-14-14-14-8 0-14 6-14 14 0 7 6 14 14 14 7 0 14-7 14-14z m76 0c0-8-7-14-14-14-8 0-14 6-14 14 0 7 6 14 14 14 7 0 14-7 14-14z m-152-52c0-7-6-14-14-14-8 0-14 7-14 14 0 8 6 14 14 14 8 0 14-6 14-14z m76 0c0-7-7-14-14-14-8 0-14 7-14 14 0 8 6 14 14 14 7 0 14-6 14-14z m76 0c0-7-7-14-14-14-8 0-14 7-14 14 0 8 6 14 14 14 7 0 14-6 14-14z m-152-51c0-7-6-14-14-14-8 0-14 7-14 14 0 8 6 14 14 14 8 0 14-6 14-14z m76 0c0-7-7-14-14-14-8 0-14 7-14 14 0 8 6 14 14 14 7 0 14-6 14-14z m76 0c0-7-7-14-14-14-8 0-14 7-14 14 0 8 6 14 14 14 7 0 14-6 14-14z"/>
<glyph glyph-name="lineicons4-color" unicode="&#103;" d="M242 387c-72 0-131-59-131-131 0-72 59-131 131-131 72 0 131 59 131 131 0 72-59 131-131 131z m-118-131c0 65 53 118 118 118l0-236c-65 0-118 53-118 118z"/>
<glyph glyph-name="lineicons4-events5" unicode="&#104;" d="M258 246c33 0 63 34 63 74l0 12c0 37-27 64-63 64-36 0-62-27-62-64l0-12c0-40 29-74 62-74z m-49 86c0 30 20 51 49 51 29 0 50-21 50-51l0-12c0-33-23-62-50-62-26 0-49 29-49 62z m149-128c0 3-1 5-2 8-1 5-3 9-6 13-6 9-15 16-27 23-7 4-10 5-14 5-7 0-12-5-23-14l-10-9c-7-10-13-15-18-15-3 0-9 3-19 16l-9 8c-17 16-22 18-37 9-13-8-21-15-26-22 0 0-1-1-1-1l0-2c-1 0-1-1-2-1-2-4-3-7-5-12 0-1 0-3-1-6 0-3 0-5 0-8l0-11c0-16 0-43 0-44 0-18 6-25 24-25l152 0c18 0 25 6 25 24l0 56c0 3-1 5-1 8z m-24-75l-152 0c-10 0-11 1-11 12-1 1 0 28 0 44l0 11c0 2 0 4 0 7 0 1 0 3 1 5 1 2 1 4 2 5 1 1 2 2 2 3l1 2c4 6 12 12 23 19 2 1 6 4 7 4 3-1 10-7 15-12l8-7c20-26 37-26 56-1l9 8c4 5 12 11 14 12 1 0 4-2 8-4 10-6 18-12 23-19 2-3 3-6 5-10 0-2 0-4 1-6 0-2 0-4 0-6l0-56c0-11-1-11-12-11z m59 109c25 0 47 25 47 54l0 9c0 27-20 47-47 47-26 0-46-20-46-47l0-9c0-29 22-54 46-54z m-33 63c0 20 14 35 33 35 20 0 34-15 34-35l0-9c0-21-16-41-34-41-17 0-33 20-33 41z m107-96c0 2-1 3-1 6 0 1 0 3-1 6-1 3-3 6-5 9-4 7-11 12-20 17-5 3-7 4-11 4-5 0-10-4-17-11l-7-6c-7-9-10-10-12-10-1 0-4 1-12 11l-6 5c-12 11-17 14-28 7-3-2-4-6-2-9 1-3 5-4 8-2 3 2 4 2 4 2 2 0 6-4 9-7l6-5c15-20 29-19 42-1l7 6c2 3 7 7 8 7 1 0 3-1 5-2 7-4 12-8 16-13 1-2 2-4 3-7 0-1 0-2 1-3 0-2 0-3 0-4l0-40c0-5-1-6-1-6 0 0-1 0-6 0l-79 0c-4 0-7-3-7-7 0-3 3-6 7-6l79 0c14 0 20 5 20 19z m-348 33c24 0 46 25 46 54l0 9c0 27-20 47-46 47-27 0-47-20-47-47l0-9c0-29 22-54 47-54z m-34 63c0 20 14 35 34 35 19 0 33-15 33-35l0-9c0-21-16-41-33-41-18 0-34 20-34 41z m-27-92c1 1 1 2 1 4 1 2 2 4 3 6 4 5 9 9 16 13 2 1 4 2 4 2 2 0 6-4 9-7l6-5c15-20 29-19 42-1l7 6c3 3 7 7 8 7 1 0 2 0 5-2 3-2 7-1 9 2 1 3 0 7-3 9-11 7-16 4-28-7l-7-6c-7-9-10-10-11-10-2 0-5 1-13 11l-6 5c-7 7-12 11-17 11-4 0-6-1-11-4-9-5-16-11-20-17-2-3-4-6-5-10-1-2-1-4-1-6-1-2-1-3-1-5l0-40c0-14 6-19 20-19l79 0c4 0 7 3 7 6 0 4-3 7-7 7l-79 0c-5 0-6 0-6 0 0 0-1 1-1 6l0 40c0 1 0 2 0 4z"/>
<glyph glyph-name="lineicons4-facebook5" unicode="&#105;" d="M309 365l39 0 0 67-6 1c-5 1-25 2-48 2-53 0-85-33-85-87l0-39-53 0 0-75 53 0 0-157 76 0 0 157 52 0 10 75-62 0 0 33c0 16 4 23 24 23z m23-69l-6-49-54 0 0-157-51 0 0 157-53 0 0 49 53 0 0 52c0 47 28 75 73 75 17 0 33-1 41-2l0-43-26 0c-33 0-37-19-37-36l0-46z"/>
<glyph glyph-name="lineicons4-fax5" unicode="&#106;" d="M382 356l-258 0c-15 0-27-12-27-26l0-72c0-15 12-27 27-27l35 0c3 0 6 3 6 7l0 16c0 8 6 14 13 14l142 0c7 0 13-6 13-14l0-44-46 0c-15 0-27-12-27-26l0-47-68 0c-22 0-27 12-27 23 0 7 0 41 0 41l-13 0c0 0 0-35 0-42 1-17 12-35 40-35l75 0c2 0 3 1 5 2l72 72c1 1 2 3 2 5l0 28 36 0c14 0 26 12 26 26l0 73c0 14-12 26-26 26z m-95-159l38 0-52-51 0 38c0 7 6 13 14 13z m108 61c0-8-6-14-13-14l-36 0 0 10c0 15-12 27-26 27l-142 0c-14 0-26-12-26-27l0-10-28 0c-8 0-14 6-14 14l0 72c0 7 6 13 14 13l258 0c7 0 13-6 13-13z m-230 102c4 0 7 3 7 7 0 4 5 8 13 8l136 0c8 0 13-4 13-8 0-4 3-7 7-7 3 0 6 3 6 7 0 12-12 21-26 21l-136 0c-15 0-26-9-26-21 0-4 3-7 6-7z m25-125l60 0c4 0 7 3 7 7 0 3-3 6-7 6l-60 0c-3 0-6-3-6-6 0-4 3-7 6-7z m0-20l60 0c4 0 7 3 7 7 0 3-3 6-7 6l-60 0c-3 0-6-3-6-6 0-4 3-7 6-7z"/>
<glyph glyph-name="lineicons4-feedback5" unicode="&#107;" d="M359 206c-4 0-7-3-7-7l0-82-214 0 0 278 214 0 0-78c0-4 3-7 7-7 3 0 6 3 6 7l0 84c0 4-3 7-6 7l-227 0c-4 0-6-3-6-7l0-290c0-4 2-7 6-7l227 0c3 0 6 3 6 7l0 88c0 4-3 7-6 7z m-48 119c0 4-3 7-6 7l-116 0c-4 0-6-3-6-7 0-3 2-6 6-6l116 0c3 0 6 3 6 6z m86-19c-3 2-7 2-9-1l-115-133c-3-3-2-7 0-9 2-1 3-2 5-2 1 0 3 1 4 2l116 134c2 3 2 7-1 9z m-113-53c0 3-3 6-6 6l-89 0c-3 0-6-3-6-6 0-4 3-7 6-7l89 0c3 0 6 3 6 7z m-95-62c-3 0-6-3-6-6 0-4 3-7 6-7l48 0c4 0 7 3 7 7 0 3-3 6-7 6z"/>
<glyph glyph-name="lineicons4-googleplus5" unicode="&#108;" d="M276 262l-104 0c-3 0-6-2-6-6 0-4 3-6 6-6l97 0c-3-53-47-96-101-96-56 0-102 46-102 102 0 56 46 102 102 102 21 0 41-7 59-19 3-2 7-2 9 1 2 3 1 7-2 9-19 14-42 21-66 21-63 0-114-51-114-114 0-63 51-114 114-114 63 0 114 51 114 114 0 4-3 6-6 6z m157 8l-46 0 0 45c0 4-3 7-6 7-4 0-7-3-7-7l0-45-45 0c-4 0-7-3-7-7 0-3 3-6 7-6l45 0 0-46c0-3 3-6 7-6 3 0 6 3 6 6l0 46 46 0c3 0 6 3 6 6 0 4-3 7-6 7z"/>
<glyph glyph-name="lineicons4-instagram5" unicode="&#109;" d="M363 412l-212 0c-32 0-58-26-58-58l0-196c0-32 26-58 58-58l212 0c31 0 57 26 57 58l0 196c0 32-26 58-57 58z m-212-13l212 0c24 0 44-20 44-45l0-56-89 0c-16 15-38 24-61 24-24 0-45-9-62-24l-89 0 0 56c0 25 20 45 45 45z m106-90c44 0 80-36 80-80 0-45-36-81-80-81-44 0-80 36-80 81 0 44 36 80 80 80z m106-196l-212 0c-25 0-45 20-45 45l0 127 77 0c-12-15-19-35-19-56 0-52 41-93 93-93 51 0 93 41 93 93 0 21-8 41-20 56l77 0 0-127c0-25-20-45-44-45z m-106 65c28 0 50 23 50 51 0 28-22 50-50 50-28 0-51-22-51-50 0-28 23-51 51-51z m0 88c21 0 37-17 37-37 0-21-16-38-37-38-21 0-38 17-38 38 0 20 17 37 38 37z m115 87c0-13-11-24-24-24-13 0-24 11-24 24 0 13 11 24 24 24 13 0 24-11 24-24z"/>
<glyph glyph-name="lineicons4-youtube5" unicode="&#110;" d="M321 271l-96 55c-5 3-11 3-17 0-5-3-8-8-8-14l0-110c0-6 3-12 8-15 3-1 6-2 9-2 3 0 6 1 8 2l96 55c5 3 8 9 8 15 0 6-3 11-8 14z m-7-18l-95-54c-1-1-3-1-4 0-1 0-2 2-2 3l0 110c0 1 1 2 2 3 0 0 1 1 2 1 1 0 1-1 2-1l95-55c2 0 2-2 2-3 0-2 0-3-2-4z m115 68c-2 28-19 58-50 59-43 3-89 4-132 4-43 0-83-1-119-4-27-3-47-35-49-62-4-48-4-76 0-124 2-27 22-59 49-62 43-3 88-4 131-4 44 0 84 1 121 4 27 5 47 36 49 62 4 48 4 79 0 127z m-13-126c-2-21-18-47-37-50-37-3-77-5-120-5-43 0-88 2-129 5-23 3-37 31-38 50-4 47-4 75 0 122 1 22 17 48 37 50 36 3 75 5 118 5 42 0 88-2 132-5 26-1 36-31 37-47 4-47 4-78 0-125z"/>
<glyph glyph-name="lineicons4-twitter5" unicode="&#111;" d="M427 362c-2 3-6 5-9 5 1 3 2 6 3 9 2 5 0 10-4 14-4 3-11 4-15 1-10-6-20-10-31-13-14 13-32 20-51 20-43 0-78-35-78-78 0 0 0-1 0-1-42 7-82 29-109 62-2 3-6 4-11 5-4-1-8-3-10-7-7-12-11-25-11-39 0-12 3-24 8-34-1 0-1-1-2-1-4-2-6-7-6-12 0-21 9-42 25-57-3-3-3-8-2-11 7-21 21-37 40-46-15-7-31-10-47-10-6 0-10 0-16 1-5 0-10-4-12-9-2-6 0-12 5-15 32-21 69-32 107-32 123 0 197 101 197 198l0 2c12 9 22 20 30 32 3 5 3 12-1 16z m-39-40c-2-1-3-3-3-5l0-5c0-91-69-185-184-185-36 0-70 10-100 30 5-1 10-1 16-1 23 0 46 6 65 18 3 1 4 4 4 6-1 3-3 5-5 6-21 6-38 22-44 43 2 0 5 1 6 4 1 3 0 6-2 7-17 13-27 33-27 54 1 0 3-1 4-2 3-1 6 0 8 2 2 2 2 5 0 8-8 11-12 24-12 38 0 12 3 23 9 33 31-38 77-62 125-67 2 0 4 0 5 2 2 1 2 3 2 5 0 2 0 4 0 7 0 36 29 65 65 65 17 0 33-7 45-18 2-2 4-2 6-2 13 3 26 8 38 14-2-7-6-13-11-19-1-2-1-6 0-8 2-2 5-3 8-2 3 1 7 3 12 4-9-12-19-23-30-32z"/>
<glyph glyph-name="lineicons4-snapchat5" unicode="&#112;" d="M413 184c-2 4-6 6-10 7l-3 1c-4 1-7 2-11 3-19 9-33 24-43 46-1 2-1 3 2 4 2 2 4 2 6 3 2 1 3 1 5 2 4 2 9 4 13 6 2 1 4 3 5 4 5 4 7 10 6 15-1 5-4 10-9 13-7 5-16 6-24 2-2-1-4-2-6-2l2 27 0 2c-1 9-1 18-3 27-7 23-21 41-43 51-24 13-51 14-78 6-25-8-43-26-53-51-4-11-4-21-4-30 0-9 0-17 1-25l0-7c-3 1-6 1-8 2-9 3-17 2-24-3-4-3-7-8-7-13-1-5 1-10 5-14 5-5 11-7 17-9l4-2c3-1 5-2 8-3 4-2 4-2 2-6-6-15-16-27-27-36-9-6-18-11-29-13-4 0-7-3-9-6-2-3-3-7-1-11 1-3 3-7 6-9 3-3 7-5 11-6 7-3 16-5 24-7l0 0c1-2 1-5 2-8 3-9 9-14 19-12 0 0 2 0 2 0 5 1 10 2 15 2 10 1 19-1 27-7 4-4 9-7 14-10 11-7 24-11 37-11 8 0 17 1 25 4 10 4 19 10 26 15 9 7 19 10 30 9 3 0 7 0 10-1l7-1c1 0 2 0 3 0 4 0 12 2 15 12 0 3 1 5 2 8 1 0 3 1 6 1 8 2 16 4 24 8 4 2 8 5 11 11 1 4 1 8 0 12z m-17-11c-6-4-14-6-22-7-2-1-4-1-6-1-3-1-7-2-8-8-1-4-2-7-3-10 0-2-1-2-3-2l-7 1c-4 0-7 1-11 1-14 1-27-3-39-11-6-6-14-11-22-14-19-6-36-4-52 6-4 3-8 6-12 9-9 7-20 10-31 10-2 0-3 0-5 0-5 0-11-1-18-2-2-1-3-2-4 3-1 3-2 6-3 9 0 3-2 6-7 7l-2 1c-8 2-16 4-24 6-2 0-4 2-6 4-1 0-2 2-2 4 13 2 25 7 34 15 14 10 25 24 32 41 4 10 1 18-8 23-3 1-7 2-10 3l-3 2c-5 1-9 3-13 6-1 2-2 3-2 4 1 2 2 3 3 4 4 3 7 3 11 1 4-1 9-3 15-3 0 0 2 0 2 0 3 0 5 0 6 2 3 3 3 6 3 9l-1 10c0 8 0 16-1 24 0 8 1 17 4 25 8 22 23 37 45 43 24 8 47 7 68-4 19-9 31-24 36-43 2-8 3-16 3-24l0-2-2-31c-1-7 5-9 7-9 7-1 12 1 18 3 4 2 7 2 12-1 1-1 2-2 2-3 1-2 0-3-2-5 0 0-1-1-2-2-4-2-8-3-13-5-1-1-2-1-3-2-3-1-6-2-8-3-8-5-11-13-7-21 11-26 27-43 49-52 4-2 8-3 12-4l4-1c0 0 1-2 1-2-1-2-2-3-5-4z"/>
<glyph glyph-name="lineicons4-play5" unicode="&#113;" d="M140 112c-1 0-2 1-3 1-2 1-3 4-3 6l0 274c0 2 1 5 3 6 2 1 5 1 7 0l237-137c2-2 3-4 3-6 0-2-1-4-3-6l-237-137c-1 0-3-1-4-1z m7 270l0-252 218 126z"/>
<glyph glyph-name="lineicons4-phone5" unicode="&#114;" d="M347 187c-14 12-25 17-35 17-13 0-20-8-29-17l-2-2c-2-2-12-6-52 34-31 31-36 44-36 49 0 2 1 2 1 3l3 2c17 17 26 31-1 65-10 12-21 18-31 18-14 0-25-11-34-21-1-1-3-3-4-4-6-6-9-14-8-25 0-26 18-75 70-127 52-51 101-69 127-69 11 0 20 3 25 8 2 1 3 3 5 4 9 9 21 21 20 35 0 11-6 20-19 30z m-10-55c-2-2-3-3-5-5-3-3-8-5-16-5-26 0-72 21-118 66-46 46-67 92-67 118 0 7 2 13 5 16 1 1 3 3 4 5 8 7 16 16 25 16 6 0 13-4 21-14 22-27 15-33 2-46l-3-3c-3-3-5-7-5-12 0-8 5-23 40-58 35-35 50-39 58-39 5 0 9 2 12 5l2 3c8 8 13 12 20 12 7 0 16-4 27-14 9-7 14-14 14-20 1-9-8-18-16-25z m-76 195c47 0 85-38 85-84 0-4 3-7 6-7 4 0 7 3 7 7 0 53-44 97-98 97-4 0-6-3-6-6 0-4 2-7 6-7z m3 75c-3 0-6-3-6-6 0-4 3-6 6-6 73 0 132-59 132-132 0-3 2-6 6-6 4 0 6 3 6 6 0 80-64 144-144 144z"/>
<glyph glyph-name="lineicons4-map5" unicode="&#115;" d="M263 343c-23 0-41-18-41-41 0-23 18-42 41-42 23 0 42 19 42 42 0 23-19 41-42 41z m0-70c-15 0-28 13-28 29 0 16 13 29 28 29 16 0 29-13 29-29 0-16-13-29-29-29z m0 141c-65 0-119-54-119-120 0-63 52-125 115-194 1-1 3-2 4-2 0 0 0 0 1 0 1 0 3 1 4 2 52 51 115 126 115 194 0 66-54 120-120 120z m1-300c-59 64-107 123-107 180 0 59 48 107 106 107 59 0 107-48 107-107 0-62-57-131-106-180z"/>
<glyph glyph-name="lineicons4-mail5" unicode="&#116;" d="M428 363c0 6-5 12-12 12 0 0 0 0 0 0 0 0 0 0 0 0l-337 0c-7 0-12-6-12-12l0-214c0 0 0 0 0 0 0 0 0 0 0 0 0-6 5-12 12-12l337 0c7 0 12 6 12 12 0 0 0 0 0 0 0 0 0 0 0 0z m-181-139l-163 138 316 1z m-168 125l100-84-99-100z m110-92l54-47c2-1 3-1 4-1 2 0 4 1 5 2l52 48 108-109-330-1z m125 10l101 93 0-195z"/>
<glyph glyph-name="lineicons4-linkarrow" unicode="&#117;" d="M330 250l-137 0c-4 0-7 2-7 6 0 4 3 6 7 6l137 0c4 0 6-2 6-6 0-4-2-6-6-6z m-69-69c-2 0-3 0-4 2-3 2-3 6 0 9l64 64-64 64c-3 3-3 7 0 9 2 3 6 3 9 0l69-68c1-2 1-3 1-5 0-2 0-3-1-5l-69-68c-2-2-3-2-5-2z"/>
<glyph glyph-name="lineicons4-virtual5" unicode="&#118;" d="M309 319l-158-62c-3-2-5-4-4-7 0-3 3-6 6-6l85-6 2-83c0-3 3-5 5-6 1 0 1 0 2 0 2 0 5 2 6 4l64 157c1 3 1 5-1 7-2 2-4 3-7 2z m-57-133l-1 58c0 4-3 6-6 7l-63 4 118 46z m4 226c-86 0-156-70-156-156 0-86 70-156 156-156 44 0 86 19 115 52 3 2 2 6 0 9-3 2-7 2-9-1-27-30-66-47-106-47-79 0-143 64-143 143 0 79 64 143 143 143 70 0 131-53 141-123 1-4 4-6 7-5 4 0 6 3 6 7-11 76-77 134-154 134z"/>
<glyph glyph-name="graphics-download" unicode="&#119;" d="M452 187c-6 0-11-5-11-11l0-69c0-12-10-21-21-21l-328 0c-11 0-21 9-21 21l0 69c0 6-5 11-11 11-6 0-12-5-12-11l0-69c0-24 20-44 44-44l328 0c24 0 44 20 44 44l0 69c0 6-6 11-12 11z m-315-54l238 0c7 0 12 5 12 11 0 7-5 12-12 12l-238 0c-7 0-12-5-12-12 0-6 5-11 12-11z m111 79c2-2 5-3 8-3 3 0 6 1 8 3l85 85c5 5 5 12 0 17-4 4-11 4-16 0l-66-66 0 190c0 6-5 11-11 11-6 0-12-5-12-11l0-190-65 66c-5 4-12 4-16 0-5-5-5-12 0-17z"/>
<glyph glyph-name="graphics-movedown" unicode="&#120;" d="M256 495c-132 0-239-107-239-239 0-132 107-239 239-239 132 0 239 107 239 239 0 132-107 239-239 239z m0-466c-125 0-227 102-227 227 0 125 102 227 227 227 125 0 227-102 227-227 0-125-102-227-227-227z m76 204l-70-69 0 199c0 4-3 7-6 7-3 0-6-3-6-7l0-199-70 69c-2 3-6 3-9 0-2-2-2-6 0-8l81-81c0 0 1-1 2-1 0 0 1-1 2-1 1 0 2 1 2 1 1 0 2 1 2 1l81 81c2 2 2 6 0 8-3 3-7 3-9 0z"/>
<glyph glyph-name="graphics-moveright" unicode="&#121;" d="M17 256c0-132 107-239 239-239 132 0 239 107 239 239 0 132-107 239-239 239-132 0-239-107-239-239z m466 0c0-125-102-227-227-227-125 0-227 102-227 227 0 125 102 227 227 227 125 0 227-102 227-227z m-204 76l69-70-199 0c-4 0-7-3-7-6 0-3 3-6 7-6l199 0-69-70c-3-2-3-6 0-9 2-2 6-2 8 0l81 81c0 0 1 1 1 2 0 0 1 1 1 2 0 1-1 2-1 2 0 1-1 2-1 2l-81 81c-2 2-6 2-8 0-3-3-3-7 0-9z"/>
<glyph glyph-name="graphics-qoute2" unicode="&#122;" d="M451 283c0 49-39 88-87 88-49 0-88-39-88-88 0-48 39-87 88-87 5 0 10 1 16 2l-41-55c-4-5-2-13 3-16 2-2 4-3 7-3 3 0 7 2 9 5l72 98c13 15 21 35 21 56z m-294 88c-48 0-87-39-87-88 0-48 39-87 87-87 6 0 11 1 16 2l-40-55c-4-5-3-13 2-16 2-2 5-3 7-3 4 0 7 2 9 5l72 98c13 15 21 35 21 56 0 49-39 88-87 88z"/>
<glyph glyph-name="lineicons3-docfile" unicode="&#65;" d="M261 143c-16 0-24-14-24-34 0-19 9-33 24-33 15 0 24 14 24 34 0 18-9 33-24 33z m-114 0c-5 0-8-1-10-1l0-65c2-1 5-1 8-1 20 0 34 11 34 35 0 21-12 32-32 32z m272 230c0 2 0 4-2 6l-87 99c0 0 0 0 0 0 0 1-1 1-1 2-1 0-1 0-1 0-1 0-1 1-2 1 0 0 0 0 0 0-1 0-2 0-2 0l-214 0c-10 0-17-8-17-17l0-416c0-9 7-17 17-17l292 0c10 0 17 8 17 17l0 324c0 1 0 1 0 1z m-233-302c-10-8-26-12-46-12-12 0-20 0-25 1l0 98c8 1 19 2 30 2 19 0 31-3 41-11 10-7 17-20 17-37 0-19-7-32-17-41z m74-13c-30 0-47 22-47 51 0 30 19 52 48 52 31 0 47-23 47-50 0-33-19-53-48-53z m114 19c7 0 14 1 19 3l3-17c-4-3-13-5-25-5-35 0-52 22-52 50 0 34 24 53 54 53 12 0 20-3 24-5l-4-18c-5 2-11 4-19 4-18 0-32-11-32-33 0-20 12-32 32-32z m-264 104l0 283 205 0 0-91c0-5 4-9 9-9l78 0 0-183z m124 178l64 0c3 0 6 3 6 6 0 3-3 6-6 6l-64 0c-4 0-6-3-6-6 0-3 2-6 6-6z m95-35l-160 0c-3 0-5-2-5-6 0-3 2-6 5-6l160 0c4 0 6 3 6 6 0 4-2 6-6 6z m-143 24l6 22c1 5 2 9 3 15l0 0c0-6 1-10 2-15l5-22 9 0 13 46-9 0-5-21c-1-5-2-11-3-16l0 0c-1 5-2 10-3 16l-4 21-9 0-5-21c-2-6-3-11-4-16l0 0c-1 4-2 10-3 16l-5 21-9 0 12-46z m143-70l-160 0c-3 0-5-3-5-6 0-3 2-6 5-6l160 0c4 0 6 3 6 6 0 3-2 6-6 6z m0-48l-160 0c-3 0-5-3-5-6 0-3 2-6 5-6l160 0c4 0 6 3 6 6 0 4-2 6-6 6z"/>
<glyph glyph-name="graphics-qoute1" unicode="&#66;" d="M157 371c-48 0-87-39-87-88 0-21 8-41 21-56l72-98c2-3 6-5 9-5 2 0 5 1 7 3 5 3 6 11 2 16l-40 55c5-1 11-2 16-2 48 0 87 39 87 87 0 49-39 88-87 88z m294-88c0 49-39 88-87 88-49 0-88-39-88-88 0-21 8-41 21-56l72-98c3-3 6-5 10-5 2 0 4 1 6 3 6 3 7 11 3 16l-40 55c5-1 10-2 16-2 48 0 87 39 87 87z"/>
<glyph glyph-name="lineicons3-downarrow" unicode="&#67;" d="M259 195l83 83c5 5 5 13 0 18-5 5-13 5-18 0l-74-74-75 74c-5 5-13 5-18 0-2-2-4-6-4-9 0-3 2-7 4-9l84-83c5-5 13-5 18 0z"/>
<glyph glyph-name="lineicons3-search04" unicode="&#68;" d="M315 485c-88 0-160-71-160-160 0-42 17-81 45-110l-151-151c-7-6-7-17 0-24 3-3 7-5 12-5 4 0 9 2 12 5l153 153c25-17 56-27 89-27 88 0 160 71 160 159 0 89-72 160-160 160z m0-285c-69 0-126 56-126 125 0 70 56 126 126 126 69 0 126-56 126-126 0-69-57-125-126-125z"/>
<glyph glyph-name="lineicons3-rightarrow4" unicode="&#69;" d="M303 265l-84 84c-5 5-13 5-18 0-5-5-5-14 0-19l74-74-74-74c-5-5-5-14 0-19 3-2 6-3 9-3 3 0 7 1 9 3l84 84c5 5 5 13 0 18z"/>
<glyph glyph-name="lineicons3-pdf" unicode="&#70;" d="M474 162c-24 33-97 41-143 44-53 61-90 138-101 211-1 9-2 17-3 27-1 6-7 11-14 11-7-1-12-7-11-14 0-9 1-18 3-27 9-105-15-180-37-226-53-16-117-47-132-83-5-11-5-22 1-32 5-10 15-16 27-16 0 0 0 0 0 0 31 0 83 39 121 110 21 5 41 9 59 11 23 2 50 3 76 2 45-49 92-80 124-80 18 0 31 10 36 27 3 12 1 25-6 35z m-410-79c-4 0-4 1-5 1-1 3-2 6 1 11 7 19 43 42 88 59-31-46-67-71-84-71z m178 121c-13-2-28-4-42-7 13 31 25 73 30 124 20-48 46-87 68-115-20 0-39-1-56-2z m213-70c-1-5-3-8-11-8-16 0-49 16-86 52 49-5 84-16 95-31 3-4 4-8 2-13z"/>
<glyph glyph-name="lineicons3-insta5" unicode="&#71;" d="M362 421l-212 0c-36 0-66-30-66-67l0-196c0-37 30-67 66-67l212 0c36 0 66 30 66 67l0 196c0 37-30 67-66 67z m36-263c0-20-17-36-36-36l-212 0c-19 0-36 16-36 36l0 196c0 20 17 36 36 36l212 0c19 0 36-16 36-36z m-142 176c-51 0-93-42-93-93 0-51 42-92 93-92 51 0 93 41 93 92 0 51-42 93-93 93z m0-155c-34 0-62 28-62 62 0 34 28 62 62 62 34 0 62-28 62-62 0-34-28-62-62-62z m110 165c0-14-11-26-25-26-14 0-26 12-26 26 0 14 12 26 26 26 14 0 25-12 25-26z"/>
<glyph glyph-name="lineicons3-info" unicode="&#72;" d="M256 438c-100 0-182-82-182-182 0-100 82-182 182-182 100 0 182 82 182 182 0 100-82 182-182 182z m0-338c-86 0-156 70-156 156 0 86 70 156 156 156 86 0 156-70 156-156 0-86-70-156-156-156z m0 194c-7 0-13-6-13-13l0-128c0-7 6-13 13-13 7 0 13 6 13 13l0 128c0 7-6 13-13 13z m0 64c-7 0-13-6-13-13l0-12c0-7 6-13 13-13 7 0 13 6 13 13l0 12c0 7-6 13-13 13z"/>
<glyph glyph-name="lineicons3-image" unicode="&#73;" d="M480 435l-448 0c-9 0-16-8-16-16l0-347c0-9 7-16 16-16l448 0c9 0 16 7 16 16l0 347c0 8-7 16-16 16z m-9-353l-430 0 0 327 430 0z m-388 24c3 0 6 1 9 3l127 109 37-35 0 0 42-39c5-5 13-4 18 1 4 5 4 13-1 18l-32 30 67 72 78-73c5-4 13-4 18 1 5 5 5 13 0 18l-88 81c-5 5-13 5-18 0l-76-82-36 34c-5 5-12 5-17 0l-136-115c-5-5-6-13-1-18 2-3 6-5 9-5z m72 146c26 0 46 21 46 46 0 25-21 45-46 45-25 0-45-20-45-45 0-25 20-46 45-46z m0 65c11 0 20-8 20-19 0-11-9-20-20-20-11 0-19 9-19 20 0 11 8 19 19 19z"/>
<glyph glyph-name="lineicons3-file" unicode="&#74;" d="M408 361c0 1 0 2-1 3 0 1 0 1 0 2 0 1-1 2-2 2 0 1 0 2-1 2 0 0 0 0 0 0 0 0 0 0 0 1l-85 75c0 1-1 1-1 1-1 1-2 1-3 2-1 0-2 0-3 0 0 0-1 1-1 1l-198 0c-8 0-13-6-13-13l0-362c0-7 5-13 13-13l282 0c7 0 13 6 13 13l0 286c0 0 0 0 0 0z m-46 12l-38 0 0 35z m20-285l-257 0 0 336 173 0 1-64c0-7 6-12 13-13l70 1z m-216 208c0-7 6-13 13-13l160 0c7 0 13 6 13 13 0 7-6 13-13 13l-160 0c-7 0-13-6-13-13z m173-57l-160 0c-7 0-13-6-13-13 0-7 6-12 13-12l160 0c7 0 13 5 13 12 0 7-6 13-13 13z m-94-70l-66 0c-7 0-13-5-13-12 0-7 6-13 13-13l66 0c7 0 13 6 13 13 0 7-6 12-13 12z"/>
<glyph glyph-name="lineicons3-filesearch" unicode="&#75;" d="M437 128l-71 70c10 13 17 29 17 46 0 40-33 72-72 72-40 0-72-33-72-72 0-40 32-72 72-72 13 0 25 4 36 10l72-73c2-2 6-3 9-3 3 0 7 1 9 3 5 5 5 14 0 19z m-173 116c0 25 21 46 47 46 25 0 46-21 46-46 0-26-21-47-46-47-26 0-47 21-47 47z m83-98c-7 0-12-6-12-13l0-25-230 0 0 319 230 0 0-85c0-7 5-12 12-12 7 0 13 5 13 12l0 98c0 7-6 13-13 13l-255 0c-7 0-13-6-13-13l0-345c0-7 6-13 13-13l255 0c7 0 13 6 13 13l0 38c0 7-6 13-13 13z"/>
<glyph glyph-name="lineicons3-favourites" unicode="&#76;" d="M467 305c-2 5-6 9-12 9l-142 0-43 134c-4 11-21 11-25 0l-43-134-142 0c-5 0-10-4-12-9-2-6 0-11 5-15l114-83-44-134c-1-6 1-11 5-15 5-3 11-3 15 0l115 83 114-83c2-1 5-2 8-2 2 0 5 1 7 2 5 4 7 9 5 15l-44 134 115 83c4 4 6 9 4 15z m-142-83c-4-3-6-9-4-14l34-106-90 66c-2 1-5 2-7 2-3 0-6-1-8-2l-90-66 34 106c2 5 0 11-4 14l-90 66 111 0c6 0 10 4 12 9l35 106 34-106c2-5 7-9 12-9l112 0z"/>
<glyph glyph-name="lineicons3-download" unicode="&#77;" d="M443 285c-7 0-13-6-13-13l-1-149-344 1 0 148c0 7-6 13-13 13-7 0-13-6-13-13l0-148c0-15 12-27 27-27l343 0c15 0 27 12 27 27l0 148c0 7-6 13-13 13z m-194-93c2-2 5-4 9-4 3 0 6 2 9 4l69 69c5 5 5 14 0 19-5 5-13 5-18 0l-48-48 0 170c0 7-5 13-12 13-7 0-13-6-13-13l0-170-48 48c-5 5-13 5-18 0-5-5-5-14 0-19z"/>
<glyph glyph-name="lineicons3-delete" unicode="&#78;" d="M436 366l-351 0c-7 0-12-6-12-13 0-7 5-13 12-13l47 0c0 0 0 0 0 0l0-232c0-15 13-27 28-27l211 0c15 0 28 12 28 27l0 232c0 0 0 0 0 0l37 0c7 0 13 6 13 13 0 7-6 13-13 13z m-63-26l0-232c0-1-1-2-2-2l-58 0 0 131c0 7-5 13-12 13-7 0-13-6-13-13l0-131-53 0 0 131c0 7-6 13-13 13-7 0-13-6-13-13l0-131-49 0c-1 0-2 1-2 2l0 232c0 0 0 0 0 0l215 0c0 0 0 0 0 0z m-201 66l189 0c7 0 13 5 13 13 0 7-6 12-13 12l-189 0c-7 0-13-5-13-12 0-8 6-13 13-13z"/>
<glyph glyph-name="lineicons3-dashboard" unicode="&#79;" d="M447 264l-185 146c-5 3-11 3-16 0l-185-146c-6-5-7-13-2-18 4-6 12-7 18-3l36 29 0-160c0-7 6-12 13-12l256 0c7 0 13 5 13 12l0 160 36-29c3-1 5-2 8-2 4 0 8 1 10 5 5 5 4 13-2 18z m-78 28l0-167-230 0 0 167c0 0-1 0-1 0l116 91 115-91c0 0 0 0 0 0z"/>
<glyph glyph-name="lineicons3-computer" unicode="&#80;" d="M422 424l-339 0c-7 0-13-6-13-13l0-251c0-7 6-13 13-13l339 0c7 0 12 6 12 13l0 251c0 7-5 13-12 13z m-13-251l-313 0 0 225 313 0 0-225z m-77-59l-158 0c-7 0-12-6-12-13 0-7 5-13 12-13l158 0c7 0 13 6 13 13 0 7-6 13-13 13z"/>
<glyph glyph-name="lineicons3-presentaion" unicode="&#81;" d="M455 442l-10 0 0 14c0 7-6 13-13 13-7 0-12-6-12-13l0-14-317 0 0 14c0 7-6 13-13 13-7 0-13-6-13-13l0-14-14 0c-8 0-15-6-15-14l0-38c0-8 7-15 15-15l14 0 0-204-5 0c-7 0-13-5-13-12 0-8 6-13 13-13l177 0 0-21c-17-6-29-21-29-40 0-23 19-42 42-42 23 0 42 19 42 42 0 19-12 34-29 40l0 21 177 0c7 0 13 5 13 13 0 7-6 12-13 12l-7 0 0 204 10 0c8 0 15 7 15 15l0 38c0 8-7 14-15 14z m-177-357c0-9-7-16-16-16-9 0-16 7-16 16 0 9 7 16 16 16 9 0 16-7 16-16z m142 86l-317 0 0 204 317 0z m24 230l-370 0 0 16 370 0 0-16z"/>
<glyph glyph-name="lineicons3-upload" unicode="&#82;" d="M428 427l-344 0c-14 0-26-11-26-26l0-200c0-14 12-26 26-26l110 0c7 0 13 5 13 12 0 8-6 13-13 13l-111 1 1 201 345-1-1-201-109 0c-7 0-12-5-12-13 0-7 5-12 12-12l109 0c14 0 26 12 26 26l0 200c0 15-12 26-26 26z m-112-182c3-2 6-3 9-3 4 0 7 1 9 3 5 5 5 13 0 18l-69 70c-5 5-13 5-18 0l-69-70c-5-5-5-13 0-18 5-5 13-5 18 0l47 48 0-196c0-7 6-12 13-12 7 0 13 5 13 12l0 196z"/>
<glyph glyph-name="lineicons3-video" unicode="&#83;" d="M473 438l-434 0c-7 0-12-6-12-13l0-338c0-7 5-13 12-13l434 0c7 0 12 6 12 13l0 338c0 7-5 13-12 13z m-371-172l-50 0 0 62 50 0z m-50-25l50 0 0-60-50 0z m76 171l251 0 0-312-251 0z m276-84l56 0 0-62-56 0z m0-87l56 0 0-60-56 0z m56 113l-56 0 0 58 56 0z m-358 58l0-58-50 0 0 58z m-50-256l50 0 0-56-50 0z m352-56l0 56 56 0 0-56z m-84 165l-90 51c-4 2-8 2-12-1-4-2-7-6-7-11l1-102c0-5 3-9 7-11 2-1 4-2 6-2 2 0 5 1 7 2l88 52c4 3 6 7 6 11 0 5-2 9-6 11z m-82-41l-1 58 51-28z"/>
<glyph glyph-name="lineicons3-view" unicode="&#84;" d="M465 263c-46 76-112 110-212 110-100 0-172-37-213-111-3-4-2-10 1-14 40-51 101-109 212-109 99 0 171 37 212 111 3 4 2 9 0 13z m-272 77c1 1 1 1 1 2 18 3 38 5 59 5 21 0 40-1 57-5 1 0 1 0 1-1 10-13 15-28 15-45 0-41-33-74-74-74-40 0-73 33-73 74 0 16 5 32 14 44z m60-175c-95 0-148 45-187 92 23 36 54 61 94 75-4-11-7-23-7-36 0-55 45-99 100-99 54 0 99 44 99 99 0 13-3 26-8 37 48-17 76-47 95-77-37-61-100-91-186-91z"/>
<glyph glyph-name="lineicons3-twitter5" unicode="&#85;" d="M449 379c-2 2-4 4-6 5 0 1 0 1 0 2 3 9 0 19-7 25-8 6-19 6-26 1-9-5-18-9-28-11-16 13-37 20-59 20-49 0-89-37-94-85-41 8-79 31-106 64-4 5-10 8-20 8-7-1-14-5-17-11-9-15-13-31-13-48 0-12 2-24 6-35-4-4-7-10-7-17 0-24 10-47 26-65-1-4-1-9 0-13 6-19 18-35 33-47-10-3-21-4-33-4-5 0-10 0-17 1-10 0-18-6-22-15-3-10 1-21 9-27 37-24 79-36 123-36 141 0 226 114 227 225 12 11 23 22 32 35 6 9 5 20-1 28z m-56-43c-3-3-6-8-6-13l0-5c0-97-73-196-196-196-27 0-54 5-78 16 22 2 43 9 62 20 5 3 8 9 8 15-1 6-6 11-12 13-18 5-33 18-41 35 2 2 4 4 5 7 2 6 0 13-5 17-14 11-24 26-26 42 4 0 8 2 11 6 4 5 5 13 0 19-7 10-12 23-12 37 0 8 2 15 4 22 35-38 84-63 136-68 5-1 9 1 12 4 4 4 5 8 5 13 0 2-1 4-1 6 0 36 29 64 64 64 17 0 33-6 45-17 3-4 9-5 14-4 7 1 14 4 21 6-3-5-3-12 0-17 2-3 5-5 8-6-5-6-11-11-18-16z"/>
<glyph glyph-name="lineicons3-instagram4" unicode="&#86;" d="M362 409l-212 0c-35 0-64-29-64-64l0-196c0-36 29-64 64-64l212 0c35 0 64 28 64 64l0 196c0 35-29 64-64 64z m38-260c0-22-17-39-38-39l-212 0c-21 0-38 17-38 39l0 196c0 21 17 38 38 38l212 0c21 0 38-17 38-38z m-144 173c-47 0-85-38-85-84 0-47 38-85 85-85 46 0 84 38 84 85 0 46-38 84-84 84z m0-143c-33 0-59 26-59 59 0 32 26 58 59 58 32 0 59-26 59-58 0-33-27-59-59-59z m121 160c0-12-9-21-21-21-11 0-21 9-21 21 0 11 10 20 21 20 12 0 21-9 21-20z"/>
<glyph glyph-name="lineicons3-play4" unicode="&#87;" d="M230 345c-4 3-9 3-13 1-4-2-7-7-7-11l0-158c0-4 3-9 7-11 2-1 4-1 6-1 2 0 5 0 7 2l109 79c4 2 6 6 6 10 0 4-2 8-6 10z m6-143l0 108 74-54z m22 236c-100 0-182-82-182-182 0-100 82-182 182-182 100 0 182 82 182 182 0 100-82 182-182 182z m0-338c-86 0-156 70-156 156 0 86 70 156 156 156 86 0 156-70 156-156 0-86-70-156-156-156z"/>
<glyph glyph-name="lineicons3-twitter5-1" unicode="&#88;" d="M449 379c-2 2-4 4-6 5 0 1 0 1 0 2 3 9 0 19-7 25-8 6-19 6-26 1-9-5-18-9-28-11-16 13-37 20-59 20-49 0-89-37-94-85-41 8-79 31-106 64-4 5-10 8-20 8-7-1-14-5-17-11-9-15-13-31-13-48 0-12 2-24 6-35-4-4-7-10-7-17 0-24 10-47 26-65-1-4-1-9 0-13 6-19 18-35 33-47-10-3-21-4-33-4-5 0-10 0-17 1-10 0-18-6-22-15-3-10 1-21 9-27 37-24 79-36 123-36 141 0 226 114 227 225 12 11 23 22 32 35 6 9 5 20-1 28z m-56-43c-3-3-6-8-6-13l0-5c0-97-73-196-196-196-27 0-54 5-78 16 22 2 43 9 62 20 5 3 8 9 8 15-1 6-6 11-12 13-18 5-33 18-41 35 2 2 4 4 5 7 2 6 0 13-5 17-14 11-24 26-26 42 4 0 8 2 11 6 4 5 5 13 0 19-7 10-12 23-12 37 0 8 2 15 4 22 35-38 84-63 136-68 5-1 9 1 12 4 4 4 5 8 5 13 0 2-1 4-1 6 0 36 29 64 64 64 17 0 33-6 45-17 3-4 9-5 14-4 7 1 14 4 21 6-3-5-3-12 0-17 2-3 5-5 8-6-5-6-11-11-18-16z"/>
<glyph glyph-name="lineicons2-facebook" unicode="&#89;" d="M313 365l39 0 0 67-5 1c-6 1-26 2-49 2-52 0-85-33-85-87l0-39-53 0 0-75 53 0 0-157 76 0 0 157 52 0 10 75-62 0 0 33c0 16 4 23 24 23z m23-69l-6-49-54 0 0-157-50 0 0 157-53 0 0 49 53 0 0 52c0 47 27 75 72 75 18 0 33-1 41-2l0-43-26 0c-32 0-37-19-37-36l0-46z"/>
<glyph glyph-name="lineicons2-instagram" unicode="&#90;" d="M361 412l-211 0c-32 0-58-26-58-58l0-196c0-32 26-58 58-58l211 0c32 0 58 26 58 58l0 196c0 32-26 58-58 58z m-211-13l211 0c25 0 45-20 45-45l0-56-89 0c-16 15-38 24-61 24-24 0-45-9-62-24l-89 0 0 56c0 25 20 45 45 45z m106-90c44 0 80-36 80-80 0-45-36-81-80-81-45 0-81 36-81 81 0 44 36 80 81 80z m105-196l-211 0c-25 0-45 20-45 45l0 127 77 0c-12-15-19-35-19-56 0-52 41-93 93-93 51 0 93 41 93 93 0 21-8 41-20 56l77 0 0-127c0-25-20-45-45-45z m-105 65c27 0 50 23 50 51 0 28-23 50-50 50-28 0-51-22-51-50 0-28 23-51 51-51z m0 88c20 0 37-17 37-37 0-21-17-38-37-38-21 0-38 17-38 38 0 20 17 37 38 37z m74 60l34 0c3 0 6 3 6 6l0 34c0 4-3 7-6 7l-34 0c-4 0-7-3-7-7l0-34c0-3 3-6 7-6z m6 34l21 0 0-21-21 0z"/>
<glyph glyph-name="lineicons2-linkedin" unicode="&#48;" d="M332 317c-25 0-41-9-52-20l0 9c0 3-3 6-6 6l-64 0c-2 0-4 0-5-2-1-1-2-3-2-4 1-18 0-191 0-193 0-1 1-3 2-4 2-1 3-2 5-2l64 0c3 0 6 3 6 6l0 108c0 6 1 10 2 13 2 6 10 19 27 19 6 0 26 0 26-37l0-103c0-3 3-6 6-6l64 0c4 0 7 3 7 6l0 111c0 58-30 93-80 93z m67-197l-51 0 0 96c0 44-25 50-39 50-18 0-32-10-39-27-2-4-2-10-2-18l0-101-52 0c0 29 1 147 0 179l52 0 0-19c-1-2-1-3 0-5 2-4 10-4 12 1 9 13 22 28 52 28 42 0 67-29 67-80l0-104z m-256 285c-25 0-43-17-43-40 0-23 18-39 42-39l1 0c24 0 42 16 42 40 0 23-18 39-42 39z m-1-66l0 0c-17 0-29 11-29 26 0 16 12 27 30 27 17 0 29-10 29-27 0-16-12-26-30-26z m32-27l-63 0c-4 0-7-3-7-6l0-193c0-3 3-6 7-6l63 0c4 0 7 3 7 6l0 193c0 3-3 6-7 6z m-6-192l-51 0 0 179 51 0z"/>
<glyph glyph-name="lineicons2-snapchat" unicode="&#49;" d="M414 184c-2 4-5 6-10 7l-3 1c-4 1-7 2-11 3-19 9-33 24-43 46-1 2-1 3 2 4 2 2 4 2 6 3 2 1 3 1 5 2 4 2 9 4 13 6 3 1 4 3 6 4 4 4 6 10 5 15 0 5-4 10-9 13-7 5-16 6-24 2-2-1-4-2-6-2l1 17 1 12c-1 9-1 18-3 27-7 23-21 41-43 52-24 12-51 13-78 5-25-9-43-26-53-52-4-10-4-20-4-29 0-9 0-16 1-25l0-7c-3 1-6 1-8 2-8 3-17 2-24-3-4-3-7-8-7-13-1-5 1-10 5-14 5-5 11-7 17-9l4-2c3-1 5-2 8-3 4-2 4-2 2-6-6-15-15-27-27-36-9-6-18-11-29-13-4 0-7-3-9-6-2-3-3-7-1-11 1-3 3-7 6-9 3-3 7-5 11-6 8-3 16-5 24-7l0 0c1-2 2-5 2-8 3-9 8-14 19-12l2 0c5 1 10 2 15 2 10 1 19-1 27-7 4-4 9-7 14-10 11-7 24-11 37-11 8 0 17 1 25 4 10 4 19 10 26 15 9 7 19 10 30 9 3 0 7-1 10-1l7-1c1 0 2 0 3 0 4 0 12 1 15 12 0 3 1 5 2 8 2 0 3 1 6 1 8 2 16 4 24 8 4 2 8 5 11 11 1 4 1 8 0 12z m-12-7c-1-2-2-3-5-4-6-4-13-6-22-7-2-1-4-1-6-1-2-1-7-2-8-8-1-4-2-7-3-10 0-2-1-2-3-2l-7 1c-4 0-7 1-11 1-14 1-27-2-39-11-6-6-14-11-22-14-19-6-36-4-51 6-5 3-9 6-13 9-9 7-20 10-31 10-2 0-3 0-5 0-5 0-10-1-16-2l-2 0c-2-1-3-2-4 3-1 3-2 6-3 9-1 4-3 6-7 7l-2 1c-8 2-16 4-24 6-2 1-4 2-6 4-1 0-2 2-2 4 13 2 25 7 34 15 14 11 25 24 32 41 4 10 1 18-8 23-3 1-7 2-10 3l-3 2c-5 1-9 3-13 6-1 2-2 3-1 4 0 2 1 3 2 4 4 2 7 3 11 1 4-1 9-3 15-3l2 0c3 0 5 0 7 2 2 3 2 6 2 9l-1 10c0 8 0 16 0 24-1 8 0 17 3 25 8 22 24 37 45 43 24 8 47 7 68-4 19-9 31-24 36-43 3-8 3-16 3-26l-2-31c0-7 5-9 7-9 7-1 13 1 18 3 4 2 7 2 12-1 1-1 2-2 2-3 1-2 0-3-1-5-1 0-2-1-2-2-5-2-9-3-13-5-2-1-3-1-4-2-3-1-6-2-8-3-8-5-11-13-7-21 11-26 27-43 49-52 4-2 9-3 13-4l3-1 2 6z"/>
<glyph glyph-name="lineicons2-twitter" unicode="&#50;" d="M424 362c-2 3-6 5-10 5 2 3 3 6 4 9 1 5 0 10-5 14-4 3-10 4-14 1-10-6-20-10-31-13-14 13-32 20-51 20-43 0-78-35-78-78 0 0 0-1 0-1-43 7-82 29-109 62-2 3-6 5-11 5-4-1-8-3-10-7-7-12-11-25-11-39 0-12 3-24 8-34-1 0-1-1-2-1-4-2-6-7-6-12 0-21 9-42 25-57-3-3-3-8-2-11 6-21 21-37 39-46-14-7-30-10-46-10-6 0-10 0-16 1-6 0-11-4-12-9-3-6 0-12 5-15 32-21 68-32 106-32 124 0 198 101 198 198l0 2c11 9 22 20 30 32 3 5 3 12-1 16z m-39-40c-2-1-3-3-3-5l0-5c0-91-69-185-185-185-35 0-70 10-99 30 5-1 10-1 16-1 23 0 45 6 65 18 2 1 4 4 3 6 0 3-2 5-4 6-22 6-38 22-45 43 3 0 6 1 7 4 1 3 0 6-3 7-16 13-27 33-26 54 1 0 3-1 4-2 3-1 6 0 8 2 2 2 2 5 0 8-8 11-12 24-12 38 0 12 3 23 9 33 31-38 76-62 125-67 2 0 4 0 5 2 2 1 2 3 2 5 0 2 0 4 0 7 0 36 29 65 65 65 16 0 33-7 45-18 1-2 4-2 6-2 13 3 26 8 38 14-3-7-6-13-11-19-1-2-2-6 0-8 2-2 5-3 7-2 4 1 8 3 12 4-8-12-18-23-29-32z"/>
<glyph glyph-name="lineicons2-youtube" unicode="&#51;" d="M430 321c-2 27-18 57-49 58-44 3-89 5-132 5-43 0-83-2-118-5-28-3-47-34-49-61-4-48-4-76 0-124 2-27 21-58 49-62 42-2 87-4 130-4 44 0 84 1 121 4 27 5 46 36 48 62 4 48 4 79 0 127z m-12-126c-2-21-18-46-38-50-36-3-76-4-119-4-42 0-87 1-129 4-22 3-36 31-38 50-4 48-4 75 0 122 2 22 18 47 38 50 35 3 74 4 117 4 42 0 88-1 132-4 26-1 35-31 37-47 4-47 4-77 0-125z m-95 67l-107 62c-1 1-4 1-6 0-2-2-3-4-3-6l0-122c0-3 1-5 3-6 1-1 2-1 3-1 1 0 2 0 3 1l107 61c2 1 4 3 4 6 0 2-2 4-4 5z m-103-55l0 100 87-50z"/>
<glyph glyph-name="angle-down" unicode="&#52;" d="M399 302c0-3-1-5-3-7l-133-133c-2-2-5-3-7-3-2 0-5 1-7 3l-133 133c-2 2-3 4-3 7 0 2 1 4 3 6l15 15c1 1 4 2 6 2 3 0 5-1 7-2l112-113 112 113c2 1 4 2 7 2 2 0 5-1 6-2l15-15c2-2 3-4 3-6z"/>
<glyph glyph-name="angle-left" unicode="&#53;" d="M344 357c0-3-1-5-3-7l-112-112 112-113c2-1 3-4 3-6 0-3-1-5-3-7l-14-14c-2-2-5-3-7-3-2 0-5 1-7 3l-133 133c-2 2-3 4-3 7 0 2 1 4 3 6l133 133c2 2 5 3 7 3 2 0 5-1 7-3l14-14c2-2 3-4 3-6z"/>
<glyph glyph-name="angle-right" unicode="&#54;" d="M335 238c0-3-1-5-3-7l-133-133c-2-2-5-3-7-3-2 0-5 1-7 3l-14 14c-2 2-3 4-3 7 0 2 1 5 3 6l112 113-112 112c-2 2-3 4-3 7 0 2 1 4 3 6l14 14c2 2 5 3 7 3 2 0 5-1 7-3l133-133c2-2 3-4 3-6z"/>
<glyph glyph-name="angle-up" unicode="&#55;" d="M399 174c0-3-1-5-3-7l-15-14c-1-2-4-3-6-3-3 0-5 1-7 3l-112 112-112-112c-2-2-4-3-7-3-2 0-5 1-6 3l-15 14c-2 2-3 4-3 7 0 2 1 4 3 6l133 133c2 2 5 3 7 3 2 0 5-1 7-3l133-133c2-2 3-4 3-6z"/>
<glyph glyph-name="angle-double-up" unicode="&#56;" d="M399 137c0-2-1-5-3-6l-15-15c-1-2-4-3-6-3-3 0-5 1-7 3l-112 113-112-113c-2-2-4-3-7-3-2 0-5 1-6 3l-15 15c-2 1-3 4-3 6 0 3 1 5 3 7l133 133c2 2 5 3 7 3 2 0 5-1 7-3l133-133c2-2 3-4 3-7z m0 110c0-3-1-5-3-7l-15-14c-1-2-4-3-6-3-3 0-5 1-7 3l-112 112-112-112c-2-2-4-3-7-3-2 0-5 1-6 3l-15 14c-2 2-3 4-3 7 0 2 1 5 3 6l133 134c2 1 5 2 7 2 2 0 5-1 7-2l133-134c2-1 3-4 3-6z"/>
<glyph glyph-name="angle-double-right" unicode="&#57;" d="M280 238c0-3-1-5-3-7l-133-133c-2-2-4-3-7-3-2 0-5 1-6 3l-15 14c-2 2-3 4-3 7 0 2 1 5 3 6l113 113-113 112c-2 2-3 4-3 7 0 2 1 4 3 6l15 14c1 2 4 3 6 3 3 0 5-1 7-3l133-133c2-2 3-4 3-6z m109 0c0-3-1-5-2-7l-134-133c-1-2-4-3-6-3-3 0-5 1-7 3l-14 14c-2 2-3 4-3 7 0 2 1 5 3 6l112 113-112 112c-2 2-3 4-3 7 0 2 1 4 3 6l14 14c2 2 4 3 7 3 2 0 5-1 6-3l134-133c1-2 2-4 2-6z"/>
<glyph glyph-name="angle-double-left" unicode="&#33;" d="M289 119c0-3-1-5-3-7l-14-14c-2-2-4-3-7-3-2 0-5 1-6 3l-134 133c-1 2-2 4-2 7 0 2 1 4 2 6l134 133c1 2 4 3 6 3 3 0 5-1 7-3l14-14c2-2 3-4 3-6 0-3-1-5-3-7l-112-112 112-113c2-1 3-4 3-6z m110 0c0-3-1-5-3-7l-15-14c-1-2-4-3-6-3-3 0-5 1-7 3l-133 133c-2 2-3 4-3 7 0 2 1 4 3 6l133 133c2 2 4 3 7 3 2 0 5-1 6-3l15-14c2-2 3-4 3-6 0-3-1-5-3-7l-113-112 113-113c2-1 3-4 3-6z"/>
<glyph glyph-name="angle-double-down" unicode="&#34;" d="M399 265c0-2-1-5-3-6l-133-134c-2-1-5-2-7-2-2 0-5 1-7 2l-133 134c-2 1-3 4-3 6 0 3 1 5 3 7l15 14c1 2 4 3 6 3 3 0 5-1 7-3l112-112 112 112c2 2 4 3 7 3 2 0 5-1 6-3l15-14c2-2 3-4 3-7z m0 110c0-3-1-5-3-7l-133-133c-2-2-5-3-7-3-2 0-5 1-7 3l-133 133c-2 2-3 4-3 7 0 2 1 5 3 6l15 15c1 2 4 3 6 3 3 0 5-1 7-3l112-113 112 113c2 2 4 3 7 3 2 0 5-1 6-3l15-15c2-1 3-4 3-6z"/>
<glyph glyph-name="arrow-down" unicode="&#35;" d="M479 274c0-10-4-18-11-25l-186-187c-7-7-16-10-26-10-10 0-19 3-26 10l-186 187c-7 6-11 15-11 25 0 10 4 19 11 26l21 22c8 7 17 10 26 10 11 0 19-3 26-10l84-84 0 201c0 10 4 18 11 26 7 7 16 10 26 10l36 0c10 0 19-3 26-10 7-8 11-16 11-26l0-201 84 84c7 7 15 10 26 10 9 0 18-3 26-10l21-22c7-7 11-16 11-26z"/>
<glyph glyph-name="arrow-left" unicode="&#36;" d="M475 256l0-37c0-10-3-18-9-25-6-8-14-11-24-11l-201 0 84-84c7-7 10-16 10-26 0-10-3-19-10-26l-22-21c-7-7-15-11-26-11-9 0-18 4-26 11l-186 186c-7 7-10 16-10 26 0 10 3 18 10 26l186 185c8 8 16 11 26 11 10 0 19-3 26-11l22-21c7-7 10-16 10-26 0-10-3-18-10-26l-84-83 201 0c10 0 18-4 24-11 6-7 9-16 9-26z"/>
<glyph glyph-name="arrow-right" unicode="&#37;" d="M457 238c0-11-3-19-10-26l-186-186c-8-7-17-11-26-11-10 0-19 4-26 11l-22 21c-7 7-10 16-10 26 0 10 3 19 10 26l84 84-201 0c-10 0-18 3-24 11-6 7-9 15-9 25l0 37c0 10 3 19 9 26 6 7 14 11 24 11l201 0-84 84c-7 6-10 15-10 25 0 11 3 19 10 26l22 21c7 8 16 11 26 11 10 0 18-3 26-11l186-186c7-6 10-15 10-25z"/>
<glyph glyph-name="arrow-up" unicode="&#38;" d="M479 235c0-10-4-19-11-26l-21-22c-8-7-16-10-26-10-11 0-19 3-26 10l-84 84 0-201c0-10-4-18-11-24-7-6-16-9-26-9l-36 0c-10 0-19 3-26 9-7 6-11 14-11 24l0 201-84-84c-7-7-15-10-26-10-10 0-18 3-25 10l-22 22c-7 7-11 16-11 26 0 10 4 18 11 26l186 186c7 7 16 10 26 10 10 0 19-3 26-10l186-186c7-8 11-17 11-26z"/>
<glyph glyph-name="arrows" unicode="&#39;" d="M512 256c0-5-2-9-5-13l-74-73c-3-4-7-5-12-5-5 0-10 1-13 5-4 4-6 8-6 13l0 36-109 0 0-109 36 0c5 0 9-2 13-6 4-3 5-8 5-13 0-5-1-9-5-12l-73-74c-4-3-8-5-13-5-5 0-9 2-13 5l-73 74c-4 3-5 7-5 12 0 5 1 10 5 13 4 4 8 6 13 6l36 0 0 109-109 0 0-36c0-5-2-9-6-13-3-4-8-5-13-5-5 0-9 1-12 5l-74 73c-3 4-5 8-5 13 0 5 2 9 5 13l74 73c3 4 7 5 12 5 5 0 10-1 13-5 4-4 6-8 6-13l0-36 109 0 0 109-36 0c-5 0-9 2-13 6-4 3-5 8-5 13 0 5 1 9 5 12l73 74c4 3 8 5 13 5 5 0 9-2 13-5l73-74c4-3 5-7 5-12 0-5-1-10-5-13-4-4-8-6-13-6l-36 0 0-109 109 0 0 36c0 5 2 9 6 13 3 4 8 5 13 5 5 0 9-1 12-5l74-73c3-4 5-8 5-13z"/>
<glyph glyph-name="arrows-alt" unicode="&#40;" d="M403 357l-101-101 101-101 41 41c6 6 12 7 20 4 8-4 11-9 11-17l0-128c0-5-1-9-5-13-4-4-8-5-13-5l-128 0c-8 0-13 3-17 11-3 7-2 14 4 20l41 41-101 101-101-101 41-41c6-6 7-13 4-20-4-8-9-11-17-11l-128 0c-5 0-9 1-13 5-4 4-5 8-5 13l0 128c0 8 3 13 11 17 7 3 14 2 20-4l41-41 101 101-101 101-41-41c-4-3-8-5-13-5-2 0-5 0-7 1-8 4-11 9-11 17l0 128c0 5 1 9 5 13 4 4 8 5 13 5l128 0c8 0 13-3 17-11 3-7 2-14-4-20l-41-41 101-101 101 101-41 41c-6 6-7 13-4 20 4 8 9 11 17 11l128 0c5 0 9-1 13-5 4-4 5-8 5-13l0-128c0-8-3-13-11-17-2-1-5-1-7-1-5 0-9 2-13 5z"/>
<glyph glyph-name="arrow-circle-right" unicode="&#41;" d="M404 256c0 5-2 9-5 13l-26 26-104 103c-3 4-8 5-13 5-5 0-9-1-13-5l-26-26c-3-3-5-7-5-13 0-5 2-9 5-12l54-54-143 0c-5 0-9-2-13-6-3-3-5-8-5-13l0-36c0-5 2-10 5-13 4-4 8-6 13-6l143 0-54-54c-3-3-5-7-5-12 0-5 2-10 5-13l26-26c4-4 8-5 13-5 5 0 10 1 13 5l104 103 26 26c3 4 5 8 5 13z m71 0c0-40-9-77-29-110-20-34-46-60-80-80-33-20-70-29-110-29-40 0-77 9-110 29-34 20-60 46-80 80-20 33-29 70-29 110 0 40 9 77 29 110 20 34 46 60 80 80 33 20 70 29 110 29 40 0 77-9 110-29 34-20 60-46 80-80 20-33 29-70 29-110z"/>
<glyph glyph-name="arrow-circle-o-up" unicode="&#42;" d="M356 262c-2-4-4-6-9-6l-54 0 0-101c0-2-1-4-3-6-2-2-4-3-7-3l-54 0c-3 0-5 1-7 3-2 2-3 4-3 6l0 101-54 0c-3 0-5 1-7 3-2 1-3 3-3 6 0 2 1 5 3 7l91 91c3 2 5 3 7 3 2 0 4-1 7-3l91-91c3-3 4-7 2-10z m-100 149c-28 0-54-7-78-20-24-14-43-33-57-57-13-24-20-50-20-78 0-28 7-54 20-78 14-24 33-43 57-57 24-13 50-20 78-20 28 0 54 7 78 20 24 14 43 33 57 57 13 24 20 50 20 78 0 28-7 54-20 78-14 24-33 43-57 57-24 13-50 20-78 20z m219-155c0-40-9-77-29-110-20-34-46-60-80-80-33-20-70-29-110-29-40 0-77 9-110 29-34 20-60 46-80 80-20 33-29 70-29 110 0 40 9 77 29 110 20 34 46 60 80 80 33 20 70 29 110 29 40 0 77-9 110-29 34-20 60-46 80-80 20-33 29-70 29-110z"/>
<glyph glyph-name="arrow-circle-o-right" unicode="&#43;" d="M366 256c0-3-1-5-3-7l-91-91c-2-2-4-3-7-3-2 0-4 1-6 3-2 2-3 4-3 7l0 54-101 0c-2 0-4 1-6 3-2 2-3 4-3 7l0 54c0 3 1 5 3 7 2 2 4 3 6 3l101 0 0 54c0 3 1 5 3 7 1 2 3 3 6 3 2 0 5-1 7-3l91-91c2-2 3-4 3-7z m45 0c0 28-7 54-20 78-14 24-33 43-57 57-24 13-50 20-78 20-28 0-54-7-78-20-24-14-43-33-57-57-13-24-20-50-20-78 0-28 7-54 20-78 14-24 33-43 57-57 24-13 50-20 78-20 28 0 54 7 78 20 24 14 43 33 57 57 13 24 20 50 20 78z m64 0c0-40-9-77-29-110-20-34-46-60-80-80-33-20-70-29-110-29-40 0-77 9-110 29-34 20-60 46-80 80-20 33-29 70-29 110 0 40 9 77 29 110 20 34 46 60 80 80 33 20 70 29 110 29 40 0 77-9 110-29 34-20 60-46 80-80 20-33 29-70 29-110z"/>
<glyph glyph-name="arrow-circle-o-left" unicode="&#44;" d="M366 283l0-54c0-3-1-5-3-7-2-2-4-3-6-3l-101 0 0-54c0-3-1-5-3-7-1-2-3-3-6-3-2 0-5 1-7 3l-91 91c-2 2-3 4-3 7 0 3 1 5 3 7l91 91c2 2 4 3 7 3 2 0 4-1 6-3 2-2 3-4 3-7l0-54 101 0c2 0 4-1 6-3 2-2 3-4 3-7z m45-27c0 28-7 54-20 78-14 24-33 43-57 57-24 13-50 20-78 20-28 0-54-7-78-20-24-14-43-33-57-57-13-24-20-50-20-78 0-28 7-54 20-78 14-24 33-43 57-57 24-13 50-20 78-20 28 0 54 7 78 20 24 14 43 33 57 57 13 24 20 50 20 78z m64 0c0-40-9-77-29-110-20-34-46-60-80-80-33-20-70-29-110-29-40 0-77 9-110 29-34 20-60 46-80 80-20 33-29 70-29 110 0 40 9 77 29 110 20 34 46 60 80 80 33 20 70 29 110 29 40 0 77-9 110-29 34-20 60-46 80-80 20-33 29-70 29-110z"/>
<glyph glyph-name="arrow-circle-up" unicode="&#45;" d="M403 256c0 5-1 10-5 13l-103 104-26 26c-4 3-8 5-13 5-5 0-9-2-13-5l-26-26-103-104c-4-3-5-8-5-13 0-5 1-9 5-13l26-26c3-3 7-5 13-5 5 0 9 2 12 5l54 54 0-143c0-5 2-9 6-13 3-3 8-5 13-5l36 0c5 0 10 2 13 5 4 4 6 8 6 13l0 143 54-54c3-3 7-5 12-5 5 0 10 2 13 5l26 26c4 4 5 8 5 13z m72 0c0-40-9-77-29-110-20-34-46-60-80-80-33-20-70-29-110-29-40 0-77 9-110 29-34 20-60 46-80 80-20 33-29 70-29 110 0 40 9 77 29 110 20 34 46 60 80 80 33 20 70 29 110 29 40 0 77-9 110-29 34-20 60-46 80-80 20-33 29-70 29-110z"/>
<glyph glyph-name="bars" unicode="&#46;" d="M475 128l0-37c0-5-1-9-5-12-4-4-8-6-13-6l-402 0c-5 0-9 2-13 6-4 3-5 7-5 12l0 37c0 5 1 9 5 13 4 3 8 5 13 5l402 0c5 0 9-2 13-5 4-4 5-8 5-13z m0 146l0-36c0-5-1-10-5-13-4-4-8-6-13-6l-402 0c-5 0-9 2-13 6-4 3-5 8-5 13l0 36c0 5 1 10 5 13 4 4 8 6 13 6l402 0c5 0 9-2 13-6 4-3 5-8 5-13z m0 147l0-37c0-5-1-9-5-13-4-3-8-5-13-5l-402 0c-5 0-9 2-13 5-4 4-5 8-5 13l0 37c0 5 1 9 5 12 4 4 8 6 13 6l402 0c5 0 9-2 13-6 4-3 5-7 5-12z"/>
<glyph glyph-name="bookmark-o" unicode="&#47;" d="M402 439l-292 0 0-355 121 116 25 24 25-24 121-116z m4 36c4 0 8 0 12-2 7-3 12-7 15-12 4-5 6-11 6-18l0-368c0-6-2-12-6-18-3-5-8-9-15-11-3-2-8-3-12-3-9 0-17 3-24 10l-126 121-126-121c-7-7-15-10-24-10-4 0-8 1-12 3-7 2-12 6-15 11-4 6-6 12-6 18l0 368c0 7 2 13 6 18 3 5 8 9 15 12 4 2 8 2 12 2z"/>
<glyph glyph-name="at" unicode="&#58;" d="M314 291c0 20-5 36-15 48-10 11-24 17-42 17-12 0-24-3-36-8-11-6-22-14-31-25-9-10-17-23-23-39-6-16-8-33-8-51 0-21 5-38 15-50 10-11 24-17 43-17 18 0 35 6 50 19 15 13 27 28 35 47 8 19 12 39 12 59z m161-35c0-21-3-40-10-56-7-17-17-30-28-39-12-9-25-16-38-21-13-5-27-8-41-8-1 0-3 0-5-1-2-1-3-2-4-2-19 0-32 5-41 15-5 7-8 14-9 24-10-13-23-23-38-31-15-9-32-13-50-13-30 0-54 9-71 27-17 18-25 44-25 77 0 30 6 58 19 83 12 25 29 46 51 60 21 15 45 22 70 22 17 0 31-3 44-10 13-6 23-16 31-28l0 5 3 16c1 1 1 3 2 4 1 1 2 1 3 1l33 0c1 0 3-1 4-3 1-1 1-2 1-4l-34-176c-1-4-2-9-2-13 0-8 1-13 4-15 2-3 6-4 13-4 5 0 10 1 16 2 5 0 12 3 21 6 8 4 15 9 22 15 6 6 11 14 16 25 5 12 7 25 7 39 0 56-17 100-50 134-33 33-77 49-133 49-25 0-48-5-71-14-23-10-42-23-58-39-17-17-30-36-39-59-10-22-15-46-15-71 0-24 5-48 15-71 9-22 22-42 39-58 16-16 35-29 58-39 23-10 46-14 71-14 43 0 82 13 116 41 2 1 4 2 7 2 2 0 4-1 6-3l11-14c2-3 2-5 2-7 0-3-1-5-3-7-20-15-41-28-65-36-24-9-49-13-74-13-30 0-58 6-85 17-27 12-51 28-70 47-20 20-35 43-47 70-12 27-17 56-17 85 0 30 5 59 17 86 12 27 27 50 47 70 19 19 43 35 70 46 27 12 55 18 85 18 66 0 118-20 159-61 40-40 60-93 60-159z"/>
<glyph glyph-name="asterisk" unicode="&#59;" d="M442 212c8-5 14-12 17-22 2-10 1-19-4-28l-18-31c-5-9-12-15-22-17-10-3-19-2-28 3l-76 44 0-88c0-10-4-18-11-26-7-7-16-10-26-10l-36 0c-10 0-19 3-26 10-7 8-11 16-11 26l0 88-76-44c-9-5-18-6-28-3-10 2-17 8-22 17l-18 31c-5 9-6 18-4 28 3 10 9 17 17 22l76 44-76 44c-8 5-14 12-17 22-2 10-1 19 4 28l18 31c5 9 12 15 22 17 10 3 19 2 28-3l76-44 0 88c0 10 4 18 11 26 7 7 16 10 26 10l36 0c10 0 19-3 26-10 7-8 11-16 11-26l0-88 76 44c9 5 18 6 28 3 10-2 17-8 22-17l18-31c5-9 6-18 4-28-3-10-9-17-17-22l-76-44z"/>
<glyph glyph-name="chain-broken" unicode="&#60;" d="M144 149l-73-73c-2-2-5-3-7-3-2 0-4 1-7 3-1 2-2 4-2 6 0 3 1 5 2 7l74 73c1 2 4 3 6 3 3 0 5-1 7-3 1-2 2-4 2-7 0-2-1-4-2-6z m48-12l0-91c0-3-1-5-3-7-1-2-3-2-6-2-3 0-5 0-7 2-1 2-2 4-2 7l0 91c0 3 1 5 2 7 2 1 4 2 7 2 3 0 5-1 6-2 2-2 3-4 3-7z m-64 64c0-3-1-5-3-6-1-2-3-3-6-3l-92 0c-2 0-4 1-6 3-2 1-3 3-3 6 0 3 1 5 3 7 2 1 4 2 6 2l92 0c3 0 5-1 6-2 2-2 3-4 3-7z m361-36c0-23-8-43-24-58l-42-42c-16-16-35-24-58-24-23 0-43 8-58 24l-96 96c-4 4-8 9-12 16l68 5 78-78c6-5 12-8 20-8 8 0 14 3 19 8l42 41c6 6 8 12 8 20 0 7-2 14-8 19l-78 79 5 68c7-4 12-8 16-12l96-96c16-17 24-36 24-58z m-176 206l-68-5-78 79c-6 5-12 8-20 8-7 0-14-3-19-8l-42-42c-6-5-8-12-8-19 0-8 2-14 8-19l78-79-5-68c-7 4-12 8-16 12l-96 96c-16 16-24 36-24 58 0 23 8 42 24 58l42 42c16 16 35 23 58 23 23 0 43-8 58-24l96-96c4-4 8-9 12-16z m181-24c0-2-1-4-3-6-2-2-4-3-6-3l-92 0c-3 0-5 1-6 3-2 2-3 4-3 6 0 3 1 5 3 7 1 2 3 3 6 3l92 0c2 0 4-1 6-3 2-2 3-4 3-7z m-156 156l0-92c0-2-1-4-2-6-2-2-4-3-7-3-3 0-5 1-6 3-2 2-3 4-3 6l0 92c0 3 1 5 3 6 1 2 3 3 6 3 3 0 5-1 7-3 1-1 2-3 2-6z m117-43l-74-73c-2-2-4-3-6-3-2 0-5 1-7 3-1 1-2 4-2 6 0 3 1 5 2 7l73 73c2 2 5 2 7 2 2 0 5 0 7-2 1-2 2-4 2-7 0-2-1-4-2-6z"/>
<glyph glyph-name="chevron-right" unicode="&#61;" d="M389 261l-212-212c-3-3-7-5-12-5-5 0-10 2-13 5l-48 48c-3 3-5 8-5 13 0 5 2 9 5 13l152 151-152 152c-3 4-5 8-5 13 0 5 2 9 5 13l48 47c3 4 8 6 13 6 5 0 9-2 12-6l212-212c4-3 6-8 6-13 0-5-2-9-6-13z"/>
<glyph glyph-name="chevron-left" unicode="&#62;" d="M408 426l-152-152 152-151c3-4 5-8 5-13 0-5-2-10-5-13l-48-48c-3-3-8-5-13-5-5 0-9 2-12 5l-212 212c-4 4-6 8-6 13 0 5 2 10 6 13l212 212c3 4 7 6 12 6 5 0 10-2 13-6l48-47c3-4 5-8 5-13 0-5-2-9-5-13z"/>
<glyph glyph-name="chevron-down" unicode="&#63;" d="M481 281l-212-212c-4-3-8-5-13-5-5 0-9 2-13 5l-212 212c-3 4-5 8-5 13 0 5 2 10 5 13l48 47c3 4 7 6 12 6 5 0 10-2 13-6l152-151 152 151c3 4 8 6 13 6 5 0 9-2 12-6l48-47c3-3 5-8 5-13 0-5-2-9-5-13z"/>
<glyph glyph-name="chevron-up" unicode="&#64;" d="M481 132l-48-47c-3-4-7-6-12-6-5 0-10 2-13 6l-152 151-152-151c-3-4-8-6-13-6-5 0-9 2-12 6l-48 47c-3 3-5 8-5 13 0 5 2 9 5 13l212 211c4 4 8 6 13 6 5 0 9-2 13-6l212-211c3-4 5-8 5-13 0-5-2-10-5-13z"/>
<glyph glyph-name="chevron-circle-up" unicode="&#91;" d="M369 187l30 29c3 3 5 8 5 13 0 5-2 9-5 12l-130 130c-4 4-8 6-13 6-5 0-9-2-13-6l-130-130c-3-3-5-7-5-12 0-5 2-10 5-13l30-29c3-4 7-6 12-6 5 0 10 2 13 6l88 87 88-87c3-4 8-6 13-6 5 0 9 2 12 6z m106 69c0-40-9-77-29-110-20-34-46-60-80-80-33-20-70-29-110-29-40 0-77 9-110 29-34 20-60 46-80 80-20 33-29 70-29 110 0 40 9 77 29 110 20 34 46 60 80 80 33 20 70 29 110 29 40 0 77-9 110-29 34-20 60-46 80-80 20-33 29-70 29-110z"/>
<glyph glyph-name="chevron-circle-right" unicode="&#93;" d="M241 113l130 130c4 4 6 8 6 13 0 5-2 9-6 13l-130 130c-3 3-7 5-12 5-5 0-10-2-13-5l-29-30c-4-3-6-7-6-12 0-5 2-10 6-13l87-88-87-88c-4-3-6-8-6-13 0-5 2-9 6-12l29-30c3-3 8-5 13-5 5 0 9 2 12 5z m234 143c0-40-9-77-29-110-20-34-46-60-80-80-33-20-70-29-110-29-40 0-77 9-110 29-34 20-60 46-80 80-20 33-29 70-29 110 0 40 9 77 29 110 20 34 46 60 80 80 33 20 70 29 110 29 40 0 77-9 110-29 34-20 60-46 80-80 20-33 29-70 29-110z"/>
<glyph glyph-name="chevron-circle-left" unicode="&#94;" d="M296 113l29 30c4 3 6 7 6 12 0 5-2 10-6 13l-87 88 87 88c4 3 6 8 6 13 0 5-2 9-6 12l-29 30c-3 3-8 5-13 5-5 0-9-2-12-5l-130-130c-4-4-6-8-6-13 0-5 2-9 6-13l130-130c3-3 7-5 12-5 5 0 10 2 13 5z m179 143c0-40-9-77-29-110-20-34-46-60-80-80-33-20-70-29-110-29-40 0-77 9-110 29-34 20-60 46-80 80-20 33-29 70-29 110 0 40 9 77 29 110 20 34 46 60 80 80 33 20 70 29 110 29 40 0 77-9 110-29 34-20 60-46 80-80 20-33 29-70 29-110z"/>
<glyph glyph-name="chevron-circle-down" unicode="&#95;" d="M269 141l130 130c3 3 5 7 5 12 0 5-2 10-5 13l-30 29c-3 4-7 6-12 6-5 0-10-2-13-6l-88-87-88 87c-3 4-8 6-13 6-5 0-9-2-12-6l-30-29c-3-3-5-8-5-13 0-5 2-9 5-12l130-130c4-4 8-6 13-6 5 0 9 2 13 6z m206 115c0-40-9-77-29-110-20-34-46-60-80-80-33-20-70-29-110-29-40 0-77 9-110 29-34 20-60 46-80 80-20 33-29 70-29 110 0 40 9 77 29 110 20 34 46 60 80 80 33 20 70 29 110 29 40 0 77-9 110-29 34-20 60-46 80-80 20-33 29-70 29-110z"/>
<glyph glyph-name="comment-o" unicode="&#96;" d="M256 402c-39 0-75-6-109-20-34-13-61-31-81-53-19-23-29-47-29-73 0-21 6-42 20-61 14-19 33-36 58-50l24-14-7-28c-5-17-12-34-20-49 29 12 55 28 78 49l13 11 16-2c13-2 25-2 37-2 39 0 75 6 109 20 34 13 61 31 81 53 19 23 29 47 29 73 0 26-10 50-29 73-20 22-47 40-81 53-34 14-70 20-109 20z m256-146c0-33-11-64-34-92-23-28-54-50-93-66-40-17-83-25-129-25-13 0-27 1-41 2-38-33-82-56-132-69-9-2-20-4-32-6l-2 0c-3 0-5 1-8 3-2 2-3 5-4 8l0 0c-1 1-1 2 0 4 0 1 0 2 0 2 0 1 1 2 2 3l1 3 2 2 3 3c1 1 4 5 8 10 5 5 8 8 10 10 2 3 5 6 9 12 4 5 7 10 9 14 3 5 5 10 8 17 3 7 5 14 8 22-30 17-54 38-71 63-17 25-26 51-26 80 0 33 11 64 34 92 23 28 54 50 93 66 40 17 83 25 129 25 46 0 89-8 129-25 39-16 70-38 93-66 23-28 34-59 34-92z"/>
<glyph glyph-name="external-link" unicode="&#123;" d="M402 247l0-92c0-22-8-42-24-58-16-16-35-24-58-24l-238 0c-22 0-42 8-58 24-16 16-24 36-24 58l0 238c0 23 8 42 24 58 16 16 36 24 58 24l201 0c3 0 5 0 7-2 2-2 3-4 3-7l0-18c0-3-1-5-3-7-2-1-4-2-7-2l-201 0c-12 0-23-5-32-14-9-9-13-19-13-32l0-238c0-12 4-23 13-32 9-9 20-13 32-13l238 0c13 0 23 4 32 13 9 9 14 20 14 32l0 92c0 3 1 5 2 6 2 2 4 3 7 3l18 0c3 0 5-1 7-3 1-1 2-3 2-6z m110 247l0-147c0-5-2-9-5-12-4-4-8-6-13-6-5 0-10 2-13 6l-50 50-187-186c-2-2-4-3-6-3-3 0-5 1-7 3l-32 32c-2 2-3 4-3 7 0 2 1 4 3 6l186 187-50 50c-4 3-6 8-6 13 0 5 2 9 6 13 3 3 7 5 12 5l147 0c5 0 9-2 13-5 3-4 5-8 5-13z"/>
<glyph glyph-name="eye" unicode="&#124;" d="M475 238c-29 45-65 78-108 101 11-20 17-42 17-65 0-35-13-65-38-90-25-25-55-38-90-38-35 0-65 13-90 38-25 25-38 55-38 90 0 23 6 45 17 65-43-23-79-56-108-101 25-39 57-70 95-94 38-23 79-34 124-34 45 0 86 11 124 34 38 24 70 55 95 94z m-205 109c0 4-2 7-4 10-3 3-6 4-10 4-24 0-44-8-61-25-17-17-26-38-26-62 0-4 1-7 4-9 3-3 6-4 10-4 4 0 7 1 10 4 2 2 4 5 4 9 0 17 5 31 17 42 12 12 26 18 42 18 4 0 7 1 10 4 2 2 4 6 4 9z m242-109c0-7-2-13-6-20-26-44-62-79-107-105-45-27-93-40-143-40-50 0-98 13-143 40-45 26-81 61-107 105-4 7-6 13-6 20 0 6 2 13 6 19 26 44 62 79 107 106 45 26 93 39 143 39 50 0 98-13 143-39 45-27 81-62 107-106 4-6 6-13 6-19z"/>
<glyph glyph-name="hand-paper-o" unicode="&#125;" d="M251 475c-8 0-16-3-22-9-6-6-10-14-10-23l0-187-9 0 0 151c0 9-3 16-9 22-6 7-14 10-23 10-8 0-16-3-22-10-7-6-10-13-10-22l0-224-44 58c-7 10-17 15-29 15-10 0-19-4-26-11-7-7-10-15-10-26 0-8 2-15 7-22l110-146c7-10 17-14 29-14l196 0c7 0 13 2 18 6 5 4 8 9 10 16l21 116c1 6 2 11 2 16l0 143c0 8-3 16-10 22-6 7-14 10-22 10-9 0-17-3-23-10-6-6-9-14-9-22l0-78-9 0 0 151c0 9-4 16-10 22-6 7-14 10-22 10-9 0-17-3-23-10-6-6-9-13-9-22l0-151-10 0 0 187c0 9-3 17-9 23-6 6-14 9-23 9z m0 37c13 0 25-3 36-10 11-7 20-16 26-28 3 1 7 1 12 1 18 0 35-6 48-20 13-13 20-29 20-48l0-5c20 1 37-5 52-18 14-14 21-30 21-50l0-143c0-7 0-15-2-23l-22-116c-2-15-10-27-22-37-11-10-25-15-41-15l-196 0c-12 0-22 3-33 8-10 5-19 12-26 21l-109 146c-10 13-15 28-15 44 0 21 7 38 21 52 15 14 32 22 52 22 15 0 27-4 37-10l0 124c0 19 6 35 20 48 13 14 29 20 48 20 5 0 9 0 12-1 6 12 15 21 26 28 11 7 22 10 35 10z"/>
<glyph glyph-name="heart-o" unicode="&#126;" d="M475 342c0 15-2 29-6 41-4 11-9 21-15 28-7 7-15 12-24 17-9 4-18 7-27 9-8 1-18 2-28 2-9 0-20-3-32-7-11-5-22-11-31-19-10-7-18-14-25-20-7-7-12-13-17-18-3-4-8-6-14-6-6 0-11 2-14 6-5 5-10 11-17 18-7 6-15 13-25 20-9 8-20 14-31 19-12 4-23 7-32 7-10 0-20-1-28-2-9-2-18-5-27-9-9-5-17-10-24-17-6-7-11-17-15-28-4-12-6-26-6-41 0-32 17-66 53-102l166-160 166 160c36 36 53 70 53 102z m37 0c0-42-22-85-65-129l-178-171c-4-4-8-5-13-5-5 0-9 1-13 5l-178 172c-2 1-4 4-8 7-3 4-8 10-16 19-7 9-13 18-19 28-6 9-11 21-15 34-5 14-7 27-7 40 0 42 12 74 36 98 24 24 58 35 101 35 11 0 23-2 36-6 12-4 23-9 34-16 11-7 20-14 27-20 8-6 15-12 22-19 7 7 14 13 22 19 7 6 16 13 27 20 11 7 22 12 34 16 13 4 25 6 36 6 43 0 77-11 101-35 24-24 36-56 36-98z"/>
<glyph glyph-name="reply" unicode="&#92;" d="M512 192c0-32-12-75-36-129-1-1-2-3-3-7-2-3-3-6-4-8-1-3-3-5-4-7-2-3-5-4-8-4-3 0-5 1-7 2-1 2-2 5-2 8 0 1 0 4 1 7 0 3 0 6 0 7 1 13 2 25 2 35 0 19-2 36-5 52-3 15-8 28-14 39-6 11-14 21-23 29-9 8-19 15-30 20-11 5-23 9-38 12-15 3-29 5-44 6-15 1-31 2-50 2l-64 0 0-73c0-5-2-9-6-13-3-4-7-5-12-5-5 0-10 1-13 5l-147 146c-3 4-5 8-5 13 0 5 2 9 5 13l147 146c3 4 8 6 13 6 5 0 9-2 12-6 4-3 6-8 6-13l0-73 64 0c136 0 219-38 250-115 10-25 15-57 15-95z"/>
<glyph glyph-name="play" unicode="&#57344;" d="M450 247l-379-211c-5-2-8-2-11-1-4 2-5 6-5 11l0 420c0 5 1 9 5 11 3 1 6 1 11-1l379-211c5-3 7-6 7-9 0-3-2-6-7-9z"/>
<glyph glyph-name="play-circle" unicode="&#57345;" d="M256 475c40 0 77-9 110-29 34-20 60-46 80-80 20-33 29-70 29-110 0-40-9-77-29-110-20-34-46-60-80-80-33-20-70-29-110-29-40 0-77 9-110 29-34 20-60 46-80 80-20 33-29 70-29 110 0 40 9 77 29 110 20 34 46 60 80 80 33 20 70 29 110 29z m110-235c6 4 9 9 9 16 0 7-3 12-9 16l-156 91c-6 4-12 4-18 0-6-3-9-9-9-16l0-182c0-7 3-13 9-16 3-2 6-3 9-3 3 0 6 1 9 3z"/>
<glyph glyph-name="play-circle-o" unicode="&#57346;" d="M375 256c0-7-3-12-9-16l-156-91c-3-2-6-3-9-3-3 0-6 1-9 3-6 3-9 9-9 16l0 182c0 7 3 13 9 16 6 4 12 4 18 0l156-91c6-4 9-9 9-16z m36 0c0 28-7 54-20 78-14 24-33 43-57 57-24 13-50 20-78 20-28 0-54-7-78-20-24-14-43-33-57-57-13-24-20-50-20-78 0-28 7-54 20-78 14-24 33-43 57-57 24-13 50-20 78-20 28 0 54 7 78 20 24 14 43 33 57 57 13 24 20 50 20 78z m64 0c0-40-9-77-29-110-20-34-46-60-80-80-33-20-70-29-110-29-40 0-77 9-110 29-34 20-60 46-80 80-20 33-29 70-29 110 0 40 9 77 29 110 20 34 46 60 80 80 33 20 70 29 110 29 40 0 77-9 110-29 34-20 60-46 80-80 20-33 29-70 29-110z"/>
<glyph glyph-name="share-alt" unicode="&#57347;" d="M384 219c25 0 47-8 65-26 18-18 26-40 26-65 0-25-8-47-26-65-18-18-40-26-65-26-25 0-47 8-65 26-18 18-26 40-26 65 0 2 0 6 0 10l-103 51c-17-16-38-24-62-24-25 0-47 8-65 26-18 18-26 40-26 65 0 25 8 47 26 65 18 18 40 26 65 26 24 0 45-8 62-24l103 51c0 4 0 8 0 10 0 25 8 47 26 65 18 18 40 26 65 26 25 0 47-8 65-26 18-18 26-40 26-65 0-25-8-47-26-65-18-18-40-26-65-26-24 0-45 8-62 24l-103-51c0-4 0-8 0-10 0-2 0-6 0-10l103-51c17 16 38 24 62 24z"/>
<glyph glyph-name="whatsapp" unicode="&#57348;" d="M318 234c2 0 12-4 28-13 16-8 24-13 25-15 1-1 1-2 1-4 0-7-2-14-5-22-3-7-10-14-20-19-11-5-20-7-29-7-11 0-29 6-55 17-18 9-34 20-48 34-14 14-28 32-42 53-14 20-21 39-21 55l0 3c1 17 8 32 21 45 5 4 10 6 15 6 1 0 3 0 5 0 3-1 5-1 6-1 3 0 6 0 7-2 2-1 3-3 5-7 1-4 5-13 9-26 5-13 7-20 7-21 0-4-3-9-9-16-7-7-10-12-10-14 0-1 0-2 1-4 7-14 16-27 29-39 11-10 25-20 43-29 3-1 5-2 7-2 3 0 8 5 15 14 8 9 13 14 15 14z m-58-152c24 0 47 5 70 15 22 9 41 22 57 38 16 16 29 35 38 57 10 22 14 46 14 70 0 24-4 47-14 69-9 22-22 42-38 58-16 16-35 28-57 38-23 9-46 14-70 14-24 0-47-5-70-14-22-10-41-22-57-38-16-16-29-36-38-58-10-22-14-45-14-69 0-39 11-74 34-105l-23-67 69 22c31-20 63-30 99-30z m0 395c29 0 57-6 84-17 26-11 49-27 68-46 20-19 35-42 46-69 12-26 17-54 17-83 0-29-5-57-17-84-11-26-26-49-46-69-19-19-42-34-68-46-27-11-55-17-84-17-37 0-72 9-104 27l-119-38 38 116c-20 33-30 71-30 111 0 29 5 57 17 83 11 27 26 50 46 69 19 19 42 35 68 46 27 11 55 17 84 17z"/>
<glyph glyph-name="underline" unicode="&#57349;" d="M50 448c-7 1-11 1-13 1l0 26c2 0 6 0 11 0 11 0 22-1 32-1 25-2 41-2 47-2 17 0 33 0 48 1 23 0 36 1 42 1 11 0 19 0 25 1l-1-4 1-19 0-2c-11-2-23-3-35-3-12 0-19-2-23-7-2-3-4-15-4-38 0-2 0-5 0-9 1-4 1-6 1-7l0-66 4-80c1-23 6-43 14-57 7-12 16-20 28-27 17-9 33-13 50-13 20 0 38 3 55 8 11 3 20 8 28 14 9 7 16 13 19 19 7 10 12 21 15 32 4 14 6 36 6 66 0 15 0 27-1 36-1 10-2 21-3 35-2 14-3 29-4 46l-1 17c-1 12-3 21-7 25-6 7-14 10-22 10l-29-1-4 1 1 24 24 0 59-2c14-1 33 0 56 2l5 0c1-7 1-12 1-15 0-1 0-4-1-9-8-2-16-3-24-3-14-2-21-4-22-5-3-3-5-7-5-12 0-1 1-4 1-8 0-3 0-6 0-8 2-4 4-42 7-114 1-37-1-66-5-86-3-15-6-27-11-35-8-13-18-24-32-35-15-11-32-20-52-26-21-6-45-9-73-9-32 0-59 4-81 13-23 9-40 20-52 35-11 14-19 33-23 55-3 16-5 38-5 68l0 95c0 36-1 56-5 61-4 7-18 11-42 11z m425-402l0 18c0 3 0 5-2 7-2 1-4 2-7 2l-420 0c-3 0-5-1-7-2-2-2-2-4-2-7l0-18c0-3 0-5 2-7 2-2 4-2 7-2l420 0c3 0 5 0 7 2 2 2 2 4 2 7z"/>
<glyph glyph-name="undo" unicode="&#57350;" d="M475 256c0-30-5-58-17-85-12-27-27-51-47-70-19-20-43-35-70-47-27-12-55-17-85-17-33 0-64 6-93 20-30 14-55 34-76 59-1 2-2 4-2 6 0 3 1 4 3 6l39 39c2 2 4 3 7 3 3 0 5-2 7-3 13-19 31-33 51-42 20-10 41-15 64-15 20 0 39 4 57 11 18 8 33 18 46 32 14 13 24 28 32 46 7 18 11 37 11 57 0 20-4 39-11 57-8 18-18 33-32 46-13 14-28 24-46 32-18 7-37 11-57 11-19 0-37-3-54-10-17-7-32-16-45-29l39-39c6-6 7-13 4-20-4-8-9-11-17-11l-128 0c-5 0-9 1-13 5-4 4-5 8-5 13l0 128c0 8 3 13 11 17 7 3 14 2 20-4l37-37c20 19 44 34 70 45 26 10 53 15 81 15 30 0 58-5 85-17 27-12 51-27 70-47 20-19 35-43 47-70 12-27 17-55 17-85z"/>
<glyph glyph-name="android-add" unicode="&#57351;" d="M416 235l-139 0 0-139-42 0 0 139-139 0 0 42 139 0 0 139 42 0 0-139 139 0z"/>
<glyph glyph-name="android-arrow-back" unicode="&#57352;" d="M427 277l-260 0 120 120-31 30-171-171 171-171 30 30-119 120 260 0z"/>
<glyph glyph-name="android-arrow-down" unicode="&#57353;" d="M277 427l0-260 120 120 30-31-171-171-171 171 30 30 120-119 0 260z"/>
<glyph glyph-name="android-arrow-dropdown" unicode="&#57354;" d="M128 320l128-128 128 128z"/>
<glyph glyph-name="android-arrow-dropleft" unicode="&#57355;" d="M320 384l-128-128 128-128z"/>
<glyph glyph-name="android-arrow-forward" unicode="&#57356;" d="M85 235l260 0-120-120 31-30 171 171-171 171-30-30 119-120-260 0z"/>
<glyph glyph-name="android-arrow-up" unicode="&#57357;" d="M277 85l0 260 120-120 30 31-171 171-171-171 30-30 120 119 0-260z"/>
<glyph glyph-name="android-call" unicode="&#57358;" d="M427 181c-27 0-53 5-76 12-8 2-16 1-21-5l-47-47c-61 31-110 80-141 141l47 47c5 5 7 13 5 21-8 24-13 50-13 77 0 11-9 21-21 21l-75 0c-11 0-21-10-21-21 0-201 162-363 363-363 11 0 21 10 21 21l0 75c0 12-10 21-21 21z"/>
<glyph glyph-name="android-done" unicode="&#57359;" d="M186 172l-90 91-32-31 122-122 262 261-32 31z"/>
<glyph glyph-name="android-done-all" unicode="&#57360;" d="M388 372l-31 31-140-139 31-31z m93 31l-233-231-92 91-30-31 122-123 264 263z m-481-171l123-123 31 31-122 123z"/>
<glyph glyph-name="android-close" unicode="&#57361;" d="M405 375l-30 30-119-119-119 119-30-30 119-119-119-119 30-30 119 119 119-119 30 30-119 119z"/>
<glyph glyph-name="android-checkmark-circle" unicode="&#57362;" d="M171 296l-29-30 93-93 208 208-29 29-179-178z m251-40c0-92-74-166-166-166-92 0-166 74-166 166 0 92 74 166 166 166 16 0 31-2 46-6l32 32c-24 11-50 16-78 16-114 0-208-94-208-208 0-114 94-208 208-208 114 0 208 94 208 208z"/>
<glyph glyph-name="chevron-down-1" unicode="&#57363;" d="M256 214l174 167c5 4 12 4 16 0l31-30c4-5 4-12 0-16l-213-204c-2-2-5-3-8-3-3 0-6 1-8 3l-213 204c-4 4-4 11 0 16l31 30c4 4 12 4 16 0z"/>
<glyph glyph-name="chevron-left-1" unicode="&#57364;" d="M214 256l167 174c4 4 4 11 0 16l-30 30c-4 5-11 5-16 1l-204-213c-2-2-3-5-3-8 0-3 1-6 3-8l204-213c5-4 12-4 16 0l30 31c4 4 4 11 0 16z"/>
<glyph glyph-name="chevron-right-1" unicode="&#57365;" d="M298 256l-167 174c-4 4-4 11 0 16l30 30c5 5 12 5 16 1l204-213c2-2 3-5 3-8 0-3-1-6-3-8l-204-213c-4-4-11-4-16 0l-30 31c-4 4-4 11 0 16z"/>
<glyph glyph-name="chevron-up-1" unicode="&#57366;" d="M256 298l174-167c5-4 12-4 16 0l31 30c4 4 4 11 0 16l-213 204c-2 2-5 3-8 3-3 0-6-1-8-3l-213-204c-4-5-4-12 0-16l31-30c4-4 12-4 16 0z"/>
<glyph glyph-name="close" unicode="&#57367;" d="M444 125l-132 132 132 130c5 5 5 14 0 19l-37 38c-3 2-7 4-10 4-4 0-7-2-10-4l-131-130-131 130c-3 2-6 4-10 4-4 0-7-2-10-4l-37-38c-5-5-5-14 0-20l132-130-132-131c-2-3-4-6-4-10 0-4 2-7 4-10l38-37c3-3 6-4 10-4 3 0 7 1 9 4l131 131 131-131c2-3 6-4 10-4 3 0 7 1 9 4l38 37c2 3 4 6 4 10 0 4-2 7-4 10z"/>
<glyph glyph-name="checkmark-round" unicode="&#57368;" d="M448 440c-17 13-41 9-54-9l-180-263-99 107c-15 17-39 17-55 2-15-16-16-42-1-58 0 0 120-134 137-147 18-14 42-10 54 9l207 302c12 18 8 44-9 57z"/>
<glyph glyph-name="close-circled" unicode="&#57369;" d="M256 479c-124 0-224-100-224-224 0-124 100-224 224-224 124 0 224 100 224 224 0 124-100 224-224 224z m108-300c2-1 3-3 3-5 0-2-1-4-3-6l-21-21c-2-2-4-3-6-3-2 0-4 1-5 3l-76 75-75-76c-2-1-4-2-6-2-2 0-4 1-6 2l-21 22c-2 2-2 4-2 6 0 2 0 4 2 5l76 76-76 75c-3 3-3 9 0 12l21 21c2 2 4 3 6 3 2 0 4-1 5-3l76-74 76 74c1 2 3 3 5 3 3 0 5-1 6-3l22-21c3-3 3-9 0-12l-76-75z"/>
<glyph glyph-name="code" unicode="&#57370;" d="M168 120c-6 0-12 2-17 7l-112 112c-9 9-9 25 0 34l112 112c9 9 25 9 34 0 9-9 9-25 0-34l-95-95 95-95c9-9 9-25 0-34-5-5-11-7-17-7z m176 0c6 0 12 2 17 7l112 112c9 9 9 25 0 34l-112 112c-9 9-25 9-34 0-9-9-9-25 0-34l95-95-95-95c-9-9-9-25 0-34 5-5 11-7 17-7z"/>
<glyph glyph-name="checkmark" unicode="&#57371;" d="M462 402l-55 44c-2 1-4 2-6 2-3 0-5-1-7-2l-199-257c0 0-79 75-81 78-2 2-5 6-10 6-4 0-6-4-8-6-2-2-30-31-44-46-1-1-1-1-2-2-1-1-2-3-2-5 0-3 1-4 2-6l3-3c0 0 139-134 142-136 2-2 5-5 9-5 4 0 7 4 9 6l249 320c1 2 2 4 2 6 0 2-1 5-2 6z"/>
<glyph glyph-name="close-round" unicode="&#57372;" d="M438 125l-131 131 131 131c14 14 14 36 0 50-15 15-37 15-51 0l-131-130-131 130c-14 15-36 15-50 0-15-14-15-36 0-50l130-131-130-131c-15-14-15-36 0-51 14-14 36-14 50 0l131 131 131-131c14-14 36-14 51 0 14 15 14 37 0 51z"/>
<glyph glyph-name="compose" unicode="&#57373;" d="M443 412l-31 31c-7 7-18 7-25 0l-31-32 55-56 32 32c7 7 7 18 0 25z m-97-11l-172-177-14-64 64 14 177 173z m38-145l0-150c0-5-4-10-9-10-5 0-269 0-269 0-6 0-10 5-10 10 0 5 0 268 0 268 0 5 5 10 11 10l149 0 32 32-201 0c-13 0-23-10-23-23l0-306c0-13 11-23 23-23l306 0c13 0 23 10 23 23l0 201z"/>
<glyph glyph-name="connection-bars" unicode="&#57374;" d="M80 160l64 0 0-64-64 0z m96 64l64 0 0-128-64 0z m96 96l64 0 0-224-64 0z m96 96l64 0 0-320-64 0z"/>
<glyph glyph-name="contrast" unicode="&#57375;" d="M256 480c-124 0-224-100-224-224 0-124 100-224 224-224 124 0 224 100 224 224 0 124-100 224-224 224z m136-360c-36-36-85-56-136-56l0 384c51 0 100-20 136-56 36-37 56-85 56-136 0-51-20-100-56-136z"/>
<glyph glyph-name="crop" unicode="&#57376;" d="M352 80l64 0 0-48-64 0z m64 80l0 256-240 0 0-64 176 0 0-192-192 0 0 320-64 0 0-64-64 0 0-64 64 0 0-256 384 0 0 64z"/>
<glyph glyph-name="ios-arrow-back" unicode="&#57377;" d="M352 384l-32 32-160-160 160-160 32 32-127 128z"/>
<glyph glyph-name="ios-arrow-down" unicode="&#57378;" d="M397 352l19-21-160-171-160 171 19 21 141-151z"/>
<glyph glyph-name="ios-arrow-forward" unicode="&#57379;" d="M160 384l32 32 160-160-160-160-32 32 127 128z"/>
<glyph glyph-name="ios-arrow-left" unicode="&#57380;" d="M352 397l-21 19-171-160 171-160 21 19-150 141z"/>
<glyph glyph-name="ios-arrow-right" unicode="&#57381;" d="M160 397l21 19 171-160-171-160-21 19 151 141z"/>
<glyph glyph-name="ios-arrow-thin-down" unicode="&#57382;" d="M350 190c-3 3-8 3-12 0l-74-67 0 285c0 4-4 8-8 8-4 0-8-4-8-8l0-285-74 67c-4 3-8 3-12 0-3-3-3-9 0-12 0 0 87-79 88-80 1 0 3-2 6-2 3 0 5 2 6 2 1 1 88 80 88 80 1 2 2 4 2 6 0 2-1 4-2 6z"/>
<glyph glyph-name="ios-arrow-thin-left" unicode="&#57383;" d="M190 162c3 3 3 8 0 12l-67 74 285 0c4 0 8 4 8 8 0 4-4 8-8 8l-285 0 67 74c3 4 3 8 0 12-3 3-9 3-12 0 0 0-79-87-80-88 0-1-2-3-2-6 0-3 2-5 2-6 1-1 80-88 80-88 2-1 4-2 6-2 2 0 4 1 6 2z"/>
<glyph glyph-name="ios-arrow-thin-right" unicode="&#57384;" d="M322 162c-3 3-3 8 0 12l67 74-285 0c-4 0-8 4-8 8 0 4 4 8 8 8l285 0-67 74c-3 4-3 8 0 12 3 3 9 3 12 0 0 0 79-87 80-88 0-1 2-3 2-6 0-3-2-5-2-6-1-1-80-88-80-88-2-1-4-2-6-2-2 0-4 1-6 2z"/>
<glyph glyph-name="ios-arrow-thin-up" unicode="&#57385;" d="M350 322c-3-3-8-3-12 0l-74 67 0-285c0-4-4-8-8-8-4 0-8 4-8 8l0 285-74-67c-4-3-8-3-12 0-3 3-3 9 0 12 0 0 87 79 88 80 1 0 3 2 6 2 3 0 5-2 6-2 1-1 88-80 88-80 1-2 2-4 2-6 0-2-1-4-2-6z"/>
<glyph glyph-name="ios-arrow-up" unicode="&#57386;" d="M397 160l19 21-160 171-160-171 19-21 141 150z"/>
<glyph glyph-name="ios-clock-outline" unicode="&#57387;" d="M256 464c-115 0-208-93-208-208 0-115 93-208 208-208 115 0 208 93 208 208 0 115-93 208-208 208z m0-399c-105 0-191 86-191 191 0 105 86 191 191 191 105 0 191-86 191-191 0-105-86-191-191-191z m0 191l-96 0 0-17 113 0 0 145-17 0z"/>
<glyph glyph-name="ios-close-empty" unicode="&#57388;" d="M340 352l-84-84-84 84-12-12 84-84-84-84 12-12 84 84 84-84 12 12-84 84 84 84z"/>
<glyph glyph-name="ios-close-outline" unicode="&#57389;" d="M403 403c-81 81-213 81-294 0-81-81-81-213 0-294 81-81 213-81 294 0 81 81 81 213 0 294z m-12-282c-74-74-195-74-270 0-74 74-74 195 0 270 75 74 196 74 270 0 74-75 74-196 0-270z m-51 231l-84-84-84 84-12-12 84-84-84-84 12-12 84 84 84-84 12 12-84 84 84 84z"/>
<glyph glyph-name="ios-chatboxes-outline" unicode="&#57390;" d="M64 448l256 0 0-96 16 0 0 112-288 0 0-224 112 0 0 16-96 0z m112-112l0-224 163 0 64-64 13 0 0 64 48 0 0 224z m272-208l-48 0 0-55-55 55-153 0 0 192 256 0z"/>
<glyph glyph-name="ios-chatbubble-outline" unicode="&#57391;" d="M256 400c97 0 176-62 176-138 0-36-18-70-49-94-33-26-78-40-126-40-29 0-51 3-70 10 0 0-1 0-2 0 0 1 0 1 0 1-5 1-10 2-15 2-6 0-11-1-16-3l-1 0c0 0-9-3-11-4l-39-17c13 43 13 44 13 47 0 7-2 14-6 20 0 1-1 2-1 2-1 1-2 2-2 3-18 22-27 47-27 73 0 76 79 138 176 138m0 16c-106 0-192-69-192-154 0-31 11-60 30-84 1-1 3-3 4-5 0 0-1 2-1 2 2-3 4-7 4-11 0-1-18-58-18-58-2-4 2-9 7-10 1 0 2 0 3 0 1 0 2 0 3 0l2 1 51 22c0 0 9 4 10 4 0 0 0 0 0 0 0 0 0 0 0 0 3 1 7 2 11 2 3 0 7-1 10-2 0 0 0 0 0 0 1 0 1 0 2 0 23-8 48-11 75-11 106 0 191 64 191 150 0 85-86 154-192 154z"/>
<glyph glyph-name="ios-compose-outline" unicode="&#57392;" d="M368 96l-288 0 0 272 224 0 16 16-256 0 0-304 320 0 0 240-16-16z m-130 132l-10 10 171 171-11 11-180-180 0-32 32 0 180 180-11 11z m206 204l-12 12c-3 3-6 4-10 4-4 0-8-1-10-4l-12-12 0 0 11-11 21-21 12 12c3 2 4 6 4 10 0 3-1 7-4 10z"/>
<glyph glyph-name="ios-person-outline" unicode="&#57393;" d="M363 148c-13 5-31 6-43 9-7 1-17 5-20 9-3 4-1 41-1 41 0 0 6 10 9 18 4 8 7 31 7 31 0 0 7 0 9 12 3 13 7 19 6 28 0 9-5 10-5 10 0 0 5 13 5 42 1 34-25 68-74 68-49 0-75-34-74-68 0-28 5-42 5-42 0 0-5-1-5-10-1-9 3-14 6-27 2-12 9-12 9-12 0 0 4-24 7-32 3-8 9-18 9-18 0 0 2-37-1-41-3-4-13-8-20-9-12-3-30-4-43-9-13-5-53-20-53-52l320 0c0 32-40 47-53 52z m-107-36l-137 0c2 3 4 5 8 8 7 5 16 9 27 13 7 3 17 4 25 5 6 1 12 2 16 3 4 1 21 5 29 15 5 5 6 13 6 32 0 10-1 19-1 20l0 4-2 4c-2 2-6 9-8 15-2 5-5 19-6 28 0 0 0-1-1 4-1 4-8 4-9 8-1 3-2 7-5 18-2 11 3 11 4 16 1 3 0 6 0 6 0 1-4 13-4 38-1 13 4 25 13 34 11 11 26 17 45 17 19 0 34-6 45-17 9-9 14-21 13-34 0-25-4-37-4-38 0 0-1-2-1-5 0-6 7-6 5-17-3-11-4-15-5-18-1-4-8-4-9-8-1-5-1-4-1-4-1-9-4-23-6-28-2-6-6-13-8-15l-2-4 0-4c0-1-1-10-1-20 0-19 1-27 6-32 8-10 25-14 29-15 4-1 10-2 16-3 8-1 18-2 25-5 11-4 20-8 27-14 4-2 6-4 8-7z"/>
<glyph glyph-name="ios-personadd" unicode="&#57394;" d="M416 359l-25 0 0 25-14 0 0-25-25 0 0-14 25 0 0-25 14 0 0 25 25 0z m-53-211c-13 5-31 6-43 9-7 1-17 5-20 9-3 4-1 41-1 41 0 0 6 10 9 18 4 8 7 31 7 31 0 0 7 0 9 12 3 13 7 19 6 28 0 9-5 10-5 10 0 0 5 13 5 42 1 34-25 68-74 68-49 0-75-34-74-68 0-28 5-42 5-42 0 0-5-1-5-10-1-9 3-14 6-27 2-12 9-12 9-12 0 0 4-24 7-32 3-8 9-18 9-18 0 0 2-37-1-41-3-4-13-8-20-9-12-3-30-4-43-9-13-5-53-20-53-52l320 0c0 32-40 47-53 52z"/>
<glyph glyph-name="ios-mic-off" unicode="&#57395;" d="M136 472l14 8 258-440-14-8z m120-313c13 0 24 2 34 8l-113 193 0-118c0-46 35-83 79-83z m79 83l0 154c0 46-35 84-79 84-25 0-48-13-62-32l137-234c3 9 4 18 4 28z m49-2l0 80-17 0 0-80c0-21-6-41-17-58l10-17c15 21 24 47 24 75z m-117-127c17 1 33 6 47 13l-9 16c-15-7-31-11-48-11-60 0-110 49-110 109l0 80-19 0 0-80c0-67 53-122 120-127l0-63-73 0 0-18 161 0 0 18-69 0 0 63z"/>
<glyph glyph-name="ios-mic-outline" unicode="&#57396;" d="M256 480c-44 0-79-38-79-84l0-154c0-46 35-84 79-84 44 0 79 38 79 84l0 154c0 46-35 84-79 84z m63-238c0-37-28-68-63-68-35 0-63 31-63 68l0 154c0 38 28 68 63 68 35 0 63-30 63-68z m48 78l0-80c0-60-50-109-110-109-60 0-110 49-110 109l0 80-19 0 0-80c0-67 53-122 120-127l0-63-73 0 0-18 161 0 0 18-69 0 0 63c66 5 117 60 117 127l0 80z"/>
<glyph glyph-name="ios-mic" unicode="&#57397;" d="M256 158c44 0 79 38 79 84l0 154c0 46-35 84-79 84-44 0-79-38-79-84l0-154c0-46 35-84 79-84z m111 162l0-80c0-60-50-109-110-109-60 0-110 49-110 109l0 80-19 0 0-80c0-67 53-122 120-127l0-63-73 0 0-18 161 0 0 18-69 0 0 63c66 5 117 60 117 127l0 80z"/>
<glyph glyph-name="ios-pause-outline" unicode="&#57398;" d="M191 400l0-288-47 0 0 288 47 0m16 16l-79 0 0-320 79 0z m161-16l0-288-47 0 0 288 47 0m16 16l-79 0 0-320 79 0z"/>
<glyph glyph-name="ios-pause" unicode="&#57399;" d="M128 416l79 0 0-320-79 0z m177 0l79 0 0-320-79 0z"/>
<glyph glyph-name="ios-play" unicode="&#57400;" d="M128 416l0-320 256 160z"/>
<glyph glyph-name="ios-play-outline" unicode="&#57401;" d="M144 387l210-131-210-131 0 262m-16 29l0-320 256 160z"/>
<glyph glyph-name="ios-plus" unicode="&#57402;" d="M256 464c-115 0-208-93-208-208 0-115 93-208 208-208 115 0 208 93 208 208 0 115-93 208-208 208z m128-217l-120 0 0-119-17 0 0 119-119 0 0 17 119 0 0 120 17 0 0-120 120 0z"/>
<glyph glyph-name="ios-plus-empty" unicode="&#57403;" d="M384 247l-120 0 0-119-17 0 0 119-119 0 0 17 119 0 0 120 17 0 0-120 120 0z"/>
<glyph glyph-name="ios-plus-outline" unicode="&#57404;" d="M256 464c-115 0-208-93-208-208 0-115 93-208 208-208 115 0 208 93 208 208 0 115-93 208-208 208z m0-399c-105 0-191 86-191 191 0 105 86 191 191 191 105 0 191-86 191-191 0-105-86-191-191-191z m8 319l-17 0 0-120-119 0 0-17 119 0 0-119 17 0 0 119 120 0 0 17-120 0z"/>
<glyph glyph-name="ios-search" unicode="&#57405;" d="M448 87l-113 114c21 26 33 59 33 95 0 84-68 152-152 152-84 0-152-68-152-152 0-84 68-152 152-152 37 0 70 12 96 33l113-113z m-328 112c-26 26-40 60-40 97 0 36 15 70 40 96 26 26 60 40 96 40 37 0 71-14 97-40 25-26 39-60 39-96 0-37-14-71-39-97-26-25-60-39-97-39-36-1-70 14-96 39z"/>
<glyph glyph-name="ios-search-strong" unicode="&#57406;" d="M345 214c15 24 23 52 23 82 0 84-68 152-152 152-84 0-152-68-152-152 0-84 68-153 152-153 31 0 59 9 83 25l7 5 108-109 34 34-108 109z m-44 167c23-23 36-53 36-85 0-32-13-63-36-85-22-23-52-35-85-35-32 0-62 12-85 35-22 22-35 53-35 85 0 32 13 62 35 85 23 22 53 35 85 35 33 0 63-13 85-35z"/>
<glyph glyph-name="ios-redo" unicode="&#57407;" d="M64 112l10 0 20 31c20 33 44 63 75 77 25 11 47 19 87 20l0-80 192 128-192 128 0-80c-63-3-108-21-143-57-53-52-49-119-49-135 0-9 0-22 0-32z"/>
<glyph glyph-name="ios-redo-outline" unicode="&#57408;" d="M64 112l10 0 20 31c20 33 44 63 75 77 25 11 47 19 87 20l0-80 192 128-192 128 0-80c-63-3-108-21-143-57-53-52-49-119-49-135 0-9 0-22 0-32z m208 208l0 65 148-97-148-97 0 65c-91 0-145-25-192-105 0 0-9 169 192 169z"/>
<glyph glyph-name="ios-refresh-empty" unicode="&#57409;" d="M256 128c-71 0-128 57-128 128 0 71 57 128 128 128l0 44 96-64-96-56 0 56c-60 0-108-48-108-108 0-60 48-108 108-108 60 0 108 48 108 108l20 0c0-71-57-128-128-128z"/>
<glyph glyph-name="ios-refresh" unicode="&#57410;" d="M256 464c-115 0-208-93-208-208 0-115 93-208 208-208 115 0 208 93 208 208 0 115-93 208-208 208z m0-336c-71 0-128 57-128 128 0 71 57 128 128 128l0 44 96-64-96-56 0 56c-60 0-108-48-108-108 0-60 48-108 108-108 60 0 108 48 108 108l20 0c0-71-57-128-128-128z"/>
<glyph glyph-name="ios-reload" unicode="&#57411;" d="M256 448c106 0 192-86 192-192l55 53 9-9-70-68-67 68 9 9 51-52c0 98-80 178-179 178-99 0-179-80-179-179 0-99 80-179 179-179 79 0 146 51 170 121l12-3c-26-76-97-131-182-131-106 0-192 86-192 192 0 106 86 192 192 192z"/>
<glyph glyph-name="lineicons5-awards" unicode="&#57412;" d="M313 216c12 13 21 30 28 48 78 36 71 122 71 123-1 3-3 6-7 6l-47 0c0 12 0 21 0 22-1 3-3 6-7 6l-198 0c-4 0-7-3-7-6 0-1 0-10 0-22l-47 0c-3 0-6-3-6-6 0-1-7-88 72-123 7-19 16-36 28-49 9-10 20-17 32-21l0-51-31 0c-4 0-7-2-7-6l0-39c0-4 3-7 7-7l116 0c4 0 7 3 7 7l0 39c0 4-3 6-7 6l-31 0 0 51c12 4 24 11 34 22z m33 66c10 35 12 72 12 98l41 0c0-17-4-69-53-98z m-241 98l41 0c0-26 3-64 13-99-49 29-54 82-54 99z m54 6c0 0 0 0 0 1 0 0 0 0 0 0-1 9 0 16 0 21l186 0c1-27 3-136-41-184-14-15-32-22-52-22-20 0-36 7-50 21-36 39-43 120-43 163z m145-282l-104 0 0 27 104 0z m-38 39l-28 0 0 47c5 0 9-1 14-1 5 0 9 1 14 1z m18 120c2-1 5-1 6 0 2 2 3 4 3 7l-5 35 25 25c1 2 2 4 1 6-1 3-2 4-5 5l-35 6-16 31c-3 4-9 4-12 0l-16-31-35-6c-2-1-4-2-5-5-1-2 0-4 1-6l25-25-5-35c0-3 1-5 3-7 1 0 2-1 3-1 1 0 2 0 3 1l32 16z m-58 17l3 26c1 2 0 4-1 5l-19 19 26 5c2 0 4 1 5 3l12 23 12-23c1-2 3-3 5-3l26-5-19-19c-1-1-2-3-1-5l4-26-24 12c-1 0-2 0-3 0-1 0-2 0-3 0z"/>
<glyph glyph-name="lineicons5-scholarship" unicode="&#57413;" d="M450 299l-198 95c-1 1-3 1-5 0l-198-95c-2-1-3-3-3-6 0-2 1-4 3-5l198-96c1 0 2 0 3 0 1 0 1 0 2 0l198 96c2 1 4 3 4 5 0 3-2 5-4 6z m-200-94l-183 88 183 89 182-89z m128 22c-4 0-7-3-7-7l0-31-121-59-122 59 0 30c0 3-3 6-7 6-3 0-6-3-6-6l0-34c0-2 1-5 4-6l128-61c1-1 2-1 3-1 1 0 1 0 2 1l129 61c2 1 3 4 3 6l0 35c0 4-3 7-6 7z m47 26c-4 0-7-3-7-6l0-109c0-3 3-6 7-6 3 0 6 3 6 6l0 109c0 3-3 6-6 6z"/>
<glyph glyph-name="icons-icon6" unicode="&#57414;" d="M106 237l23 0c4 0 7 3 7 6 0 4-3 7-7 7l-23 0c-4 0-6-3-6-7 0-3 2-6 6-6z m53 0l144 0c3 0 6 3 6 6 0 4-3 7-6 7l-144 0c-3 0-6-3-6-7 0-3 3-6 6-6z m-53 66l24 0c3 0 6 3 6 7 0 3-3 6-6 6l-24 0c-3 0-6-3-6-6 0-4 3-7 6-7z m54 0l143 0c4 0 6 3 6 7 0 3-2 6-6 6l-143 0c-4 0-7-3-7-6 0-4 3-7 7-7z m-31-187l-23 0c-3 0-6-3-6-6 0-4 3-7 6-7l23 0c4 0 7 3 7 7 0 3-3 6-7 6z m174 0l-143 0c-4 0-7-3-7-6 0-4 3-7 7-7l143 0c3 0 6 3 6 7 0 3-3 6-6 6z m-173 67l-23 0c-4 0-7-3-7-7 0-3 3-6 7-6l23 0c3 0 6 3 6 6 0 4-3 7-6 7z m173 0l-143 0c-4 0-6-3-6-7 0-3 2-6 6-6l143 0c4 0 7 3 7 6 0 4-3 7-7 7z m138 283l-42 0c-7 0-13-5-13-12l0-345c0-4 1-7 3-11 4-9 12-26 18-38l3-7c1-2 3-8 9-8 5 0 7 4 9 8 4 9 14 30 19 41 1 1 1 2 2 3 2 5 4 9 4 12l0 345c0 7-6 12-12 12z m-1-12l0-55-41 0 0 55z m-3-351c0-2-1-3-1-3-5-10-12-26-17-36l-1 2c-5 11-14 29-17 37-2 3-2 4-2 6l0 277 41 0 0-277c0-1-2-5-3-6z m-92 319l-76 0-3 12c-1 7-6 12-12 12l-16 0 0 15c0 7-6 12-13 12l-42 0c-7 0-13-5-13-12l0-15-13 0c-7 0-12-5-12-12l-4-12-78 0c-7 0-12-6-12-12l0-357c0-7 5-12 12-12l282 0c7 0 12 5 12 12l0 357c0 6-5 12-12 12z m-188 11l26 0 0 27 42 1 0-28 28 0 12-45-120-1z m-93-380l-1 356 75 0-5-20-1-2c0-7 6-12 12-12l122 0c7 0 12 5 12 12l-6 22 73 1 0-356z"/>
<glyph glyph-name="lineicons3-rightarrow3" unicode="&#57415;" d="M370 256c0 2-1 4-2 5l-112 113c-3 3-8 3-11 0-3-3-3-8 0-11l99-99-199 0c-5 0-8-4-8-8 0-4 3-8 8-8l199 0-99-99c-3-3-3-8 0-11 1-1 3-2 5-2 2 0 4 1 6 2l112 113c1 1 2 3 2 5z"/>
<glyph glyph-name="lineicons3-rightarrow3-1" unicode="&#57416;" d="M378 251c1 2 1 3 1 5 0 2 0 3-1 5 0 1-1 3-2 4l-113 112c-5 5-13 5-18 0-5-4-5-13 0-18l91-90-187 0c-7 0-13-6-13-13 0-7 6-13 13-13l187 0-91-90c-5-5-5-14 0-18 3-3 6-4 9-4 3 0 7 1 9 4l113 112c1 1 2 3 2 4z"/>
<glyph glyph-name="lineicons2-call3" unicode="&#57417;" d="M336 188c-14 12-26 17-36 17-13 0-21-8-29-17l-5-3c-3 0-16 4-48 35-32 32-35 45-35 50l3 3c17 16 27 31-1 65-10 13-21 20-32 20-15 0-26-12-35-22l-4-4c-6-6-9-15-9-26 1-27 19-76 71-128 52-51 102-70 129-70 11 0 20 3 25 9l5 4c10 10 22 21 21 37-1 10-7 20-20 30z m-12-55l-5-5c-2-3-7-4-14-4-26 0-72 20-118 65-45 45-66 92-66 117 0 7 1 12 4 15l5 5c7 7 15 16 23 16 6 0 13-4 20-13 21-26 15-32 2-46l-3-2c-3-3-5-8-5-13 0-8 5-23 40-59 36-35 51-39 59-39 5 0 10 2 13 5l3 3c7 7 12 12 18 12 6 0 15-5 27-14 9-7 13-13 13-19 1-8-8-17-16-24z m-75 193c46 0 84-37 84-83 0-5 3-8 7-8 5 0 8 3 8 8 0 54-44 98-99 98-4 0-7-3-7-7 0-5 3-8 7-8z m4 78c-5 0-8-4-8-8 0-4 3-8 8-8 71 0 130-58 130-130 0-4 3-7 7-7 5 0 8 3 8 7 0 80-65 146-145 146z"/>
<glyph glyph-name="icons-fax" unicode="&#57418;" d="M395 359l-10 0 0 60c0 4-4 8-8 8l-151 0c-4 0-7-4-7-8l0-60-24 0 0 7c0 5-3 8-7 8l-81 0c-4 0-8-3-8-8l0-230c0-4 4-8 8-8l33 0 0-22c0-11 9-21 20-21l90 0c12 0 21 10 21 21l0 42 124 0c5 0 8 3 8 7l0 196c0 4-3 8-8 8z m-161 52l135 0 0-52-135 0z m-119-52l65 0 0-215-65 0z m140-253c0-3-2-5-5-5l-90 0c-3 0-5 2-5 5l0 22 33 0c4 0 7 4 7 8l0 12 60 0z m133 57l-193 0 0 181 193 0z m-36 226l-94 0c-5 0-8-4-8-8 0-4 3-8 8-8l94 0c5 0 8 4 8 8 0 4-3 8-8 8z m-131-83l22 0 0-22-22 0z m58 0l22 0 0-22-22 0z m58 0l22 0 0-22-22 0z m-116-39l22 0 0-22-22 0z m58 0l22 0 0-22-22 0z m58 0l22 0 0-22-22 0z m-116-38l22 0 0-22-22 0z m58 0l22 0 0-22-22 0z m58 0l22 0 0-22-22 0z"/>
<glyph glyph-name="lineicons-pdf" unicode="&#57419;" d="M406 337c0 1-1 2-1 3 0 1 0 2-1 2l-91 100c0 0-1 0-1 0 0 0 0 0 0 0 0 1-2 1-2 2-1 0-2 1-3 1 0 0 0 0-1 0l-169 0c-12 0-21-9-21-21l0-337c0-11 9-20 21-20l249 0c11 0 20 9 20 20 0 0 0 145 0 250z m-91 78l64-70c-25 0-45-1-65 0z m71-331l-249 0c-2 0-4 1-4 3l0 338c0 2 2 3 4 3l161 0 0-92c0-4 3-8 8-8 23 0 46 0 79 0l4 0c0-104 1-241 1-241 0-2-2-3-4-3z m-90 151c-12 9-23 19-30 29-6 8-10 17-14 28 12 43 14 63 7 73-3 4-7 6-13 6 0 0 0 0 0 0-4 0-7-2-10-6-8-12-7-44 2-73-3-10-6-21-9-32l-3-7c-4-16-12-33-21-49-26-15-45-33-48-46-1-5 0-8 2-10 2-3 5-5 8-5 17 0 42 42 48 52 12 7 26 13 41 18 12 4 25 7 37 9 18-12 38-20 51-20 11 0 13 7 14 10 1 3 0 8-3 11-8 10-30 15-59 12z m-125-77c2 4 7 11 16 18-7-9-12-15-16-18z m75 200c2 0 2 0 3-1 3-4 2-17-4-40-3 22-1 39 1 41z m5-133c-9-3-18-7-26-11 5 12 10 24 14 35l2 7c2 6 3 11 5 17 3-6 6-12 10-17 6-8 13-16 23-24-9-1-18-4-28-7z m67-2c16-1 24-5 27-8-5 0-16 2-27 8z"/>
<glyph glyph-name="lineicons-register2" unicode="&#57420;" d="M215 122l-104 0 0 275 223 0 0-147c0-6 4-10 9-10 5 0 10 4 10 10l0 166-262 0 0-313 124 0c5 0 10 4 10 9 0 5-5 10-10 10z m192 84c-4 4-10 4-14 0l-83-83-43 43c-4 3-10 3-14 0-4-4-4-10 0-14l57-56 97 97c3 4 3 10 0 13z m-245 114l124 0c5 0 9 5 9 10 0 5-4 9-9 9l-124 0c-5 0-10-4-10-9 0-5 5-10 10-10z m134-64c0 5-4 10-10 10l-124 0c-5 0-9-5-9-10 0-5 4-9 9-9l124 0c6 0 10 4 10 9z m-134-59c-5 0-9-5-9-10 0-5 4-10 9-10l51 0c6 0 10 5 10 10 0 5-4 10-10 10z"/>
<glyph glyph-name="lineicons-web2" unicode="&#57421;" d="M375 149c26 28 41 66 41 107 0 40-15 77-40 106 0 0 0 0 0 0 0 0 0 0 0 1-30 33-73 55-122 55-48 0-91-22-121-56 0 0 0 0-1 0 0 0 0 0 0 0-24-29-39-66-39-106 0-41 15-79 41-107 0 0 0-1 0-1 0 0 0 0 0 0 30-33 73-54 120-54 47 0 90 20 119 53 1 0 2 1 2 1 0 0 0 1 0 1z m-269 100l57 0c1-27 5-52 12-74-12-4-24-9-34-15-21 25-33 55-35 89z m34 101c10-6 22-11 34-16-6-21-10-45-11-71l-57 0c2 33 14 63 34 87z m263-87l-58 0c0 26-4 50-10 71 12 5 24 10 34 16 20-24 32-54 34-87z m-155-75c-21 0-42-3-60-8-7 20-11 44-11 69l71 0z m0-13l0-67c-23 4-43 26-56 59 17 5 36 7 56 8z m13 0c20 0 38-3 56-8-13-33-33-55-56-59z m0 13l0 61 71 0c0-25-4-49-11-69-19 5-39 8-60 8z m71 75l-71 0 0 58c21 1 42 4 61 9 6-20 10-43 10-67z m-71 71l0 70c23-4 44-27 57-62-18-4-37-7-57-8z m-13 70l0-70c-20 1-39 4-57 8 13 35 33 58 57 62z m0-83l0-58-71 0c0 24 4 47 10 67 19-5 40-8 61-9z m-69-158c8-20 19-37 31-49-23 7-43 20-60 36 9 5 19 10 29 13z m150 0c11-4 21-8 30-13-17-16-37-29-60-36 12 12 23 29 30 49z m5 12c7 22 11 47 11 74l58 0c-2-34-15-64-35-89-10 6-22 11-34 15z m26 185c-9-5-19-10-30-13-8 21-18 38-31 51 23-8 44-21 61-38z m-150 38c-13-13-24-30-32-51-10 3-20 8-29 13 16 17 37 30 61 38z"/>
<glyph glyph-name="lineicons-location2" unicode="&#57422;" d="M250 377c-39 0-71-32-71-71 0-39 32-71 71-71 39 0 70 32 70 71 0 39-31 71-70 71z m0-130c-33 0-59 27-59 59 0 33 26 59 59 59 32 0 59-26 59-59 0-32-27-59-59-59z m0 190c-75 0-136-61-136-136 0-79 68-160 117-216 0-1 8-9 18-9l1 0c10 0 18 8 18 9 49 56 117 137 117 216 0 75-61 136-135 136z m1-345c0 0-1-1-2-1 0 0-1 1-1 1-43 50-117 134-117 211 0 65 54 118 119 118 65 0 118-53 118-118 0-77-73-161-117-211z"/>
<glyph glyph-name="file-pdf-o" unicode="&#57423;" d="M456 403c5-5 10-12 14-21 4-9 5-18 5-25l0-330c0-7-2-14-8-19-5-5-11-8-19-8l-384 0c-8 0-14 3-19 8-6 5-8 12-8 19l0 458c0 7 2 14 8 19 5 5 11 8 19 8l256 0c8 0 16-2 25-6 9-4 17-8 22-13z m-127 70l0-107 108 0c-2 5-4 9-7 11l-89 90c-2 2-6 4-12 6z m110-436l0 292-119 0c-8 0-14 3-19 8-6 5-8 12-8 20l0 118-220 0 0-438z m-147 169c6-5 14-10 24-16 11 1 22 2 33 2 28 0 45-5 51-14 3-4 3-9 1-15 0 0-1 0-1 0l0-1 0 0c-1-8-8-11-21-11-9 0-20 2-32 6-13 3-26 8-38 15-42-5-79-13-112-24-29-50-52-75-69-75-3 0-5 1-8 2l-7 4c0 0 0 0-1 1-2 2-3 5-2 10 2 8 7 17 16 26 9 10 22 19 38 28 2 2 5 1 6-2 1 0 1 0 1-1 10 16 20 35 30 56 13 26 23 51 30 75-4 16-7 31-9 46-1 15 0 27 2 36 2 8 6 12 12 12l7 0c4 0 7-2 10-5 3-4 4-10 2-19 0-1-1-2-1-2 0-1 0-2 0-3l0-8c0-24-1-42-4-55 11-31 25-54 42-68z m-165-117c10 4 23 19 40 45-10-8-18-16-25-24-7-9-12-16-15-21z m114 262c-3-8-3-20 0-37 0 1 0 5 2 12 0 1 0 5 2 13 0 0 0 1 1 2 0 0-1 0-1 0 0 1 0 1 0 1 0 0 0 0 0 0 0 4-1 8-4 11 0-1 0-1 0-1z m-35-188c25 10 52 18 81 23-1 0-2 1-4 2-2 2-3 3-4 4-15 13-27 30-37 51-5-17-13-36-23-57-6-10-10-18-13-23z m184 4c-4 5-18 7-40 7 15-5 27-8 36-8 2 0 4 0 5 0 0 0 0 1-1 1z"/>
<glyph glyph-name="ios-home-outline" unicode="&#57424;" d="M256 400l-160-128 0-208 112 0 0 128 96 0 0-128 112 0 0 208z m144-320l-80 0 0 128-128 0 0-128-80 0 0 184 144 116 144-116z m-144 368l-96-77 0 45-64 0 0-96-32-25 12-12 180 145 180-145 12 12z m-112-90l-32-25 0 67 32 0z"/>
<glyph glyph-name="social-nodejs" unicode="&#57425;" d="M256 32c-6 0-12 2-17 5l-53 32c-8 5-4 6-1 7 10 4 14 6 25 12 1 1 3 1 4 0l39-23c2-1 4-1 5 0l156 92c1 1 2 3 2 4l0 187c0 2-1 4-2 5l-156 94c-1 1-3 1-4 0l-155-94c-2-1-3-3-3-5l0-187c0-1 1-3 2-4l40-24c24-12 38 0 38 15l0 183c0 3 2 5 5 5l22 0c3 0 5-2 5-5l0-183c0-33-19-52-49-52-9 0-17 0-37 11l-41 24c-11 7-17 18-17 30l0 190c0 12 6 24 17 30l158 95c10 5 24 5 34 0l158-95c11-6 17-18 17-30l0-190c0-12-6-23-17-30l-158-94c-5-3-11-5-17-5z m49 128c-65 0-84 32-84 59 0 3 2 5 5 5l20 0c2 0 4-2 5-4 3-22 16-31 54-31 33 0 47 10 47 29 0 10-3 18-55 23-44 5-71 15-71 51 0 33 27 52 73 52 46 0 76-14 79-51 0-1-1-2-2-3 0-1-2-2-3-2l-20 0c-3 0-4 2-5 4-4 17-17 23-49 23-37 0-41-13-41-22 0-12 5-16 54-23 49-6 72-16 72-51 0-36-29-59-79-59z"/>
<glyph glyph-name="social-javascript" unicode="&#57426;" d="M208 424l-80 0 0-213c0-52-18-67-49-67-15 0-28 3-39 6l-8-62c15-5 37-8 55-8 72 0 121 34 121 131z m174 8c-77 0-126-44-126-102 0-50 38-82 93-102 39-14 55-27 55-47 0-23-18-38-52-38-32 0-61 11-81 21l0 0-15-63c19-10 53-21 91-21 91 0 133 49 133 106 0 48-27 80-85 102-43 17-62 27-62 48 0 18 16 33 48 33 32 0 54-10 67-17l19 64c-20 9-47 16-85 16z"/>
<glyph glyph-name="tec-web" unicode="&#57427;" d="M255 462c-113 0-205-92-205-205 0-112 92-204 205-204 112 0 204 92 204 204 0 113-92 205-204 205z m-190-212l77 0c0-24 3-47 7-68l-69 0c-9 21-14 44-15 68z m197 97l0 100c34-5 64-44 79-100l-79 0z m83-14c5-21 8-44 8-68l-91 0 0 68z m-98 114l0-100-79 0c15 56 45 95 79 100z m0-114l0-68-91 0c1 24 3 47 8 68z m-105-68l-77 0c1 24 6 47 15 68l69 0c-4-21-7-44-7-68z m14-15l91 0 0-68-83 0c-5 21-7 44-8 68z m91-82l0-100c-34 5-64 44-79 100z m15-100l0 100 79 0c-15-56-45-95-79-100z m0 114l0 68 91 0c0-24-3-47-8-68z m105 68l77 0c-1-24-6-47-15-68l-69 0c4 21 7 44 7 68z m0 15c0 24-3 47-7 68l69 0c9-21 14-44 15-68z m55 82l-66 0c-10 41-28 73-50 93 50-14 92-48 116-93z m-219 93c-22-20-40-52-50-93l-66 0c24 45 66 79 116 93z m-116-272l66 0c10-41 28-74 50-94-50 15-92 49-116 94z m219-94c22 20 40 53 50 94l66 0c-24-45-66-79-116-94z"/>
<glyph glyph-name="pgsicon-home2" unicode="&#57428;" d="M498 245l-53 48 0 115c0 5-4 9-9 9l-47 0c-2 0-5-1-6-3-2-1-3-4-3-6l0-56-115 105c-4 3-9 3-12 0l-242-213c-3-2-3-7-2-10 2-4 6-6 10-5l54 12 0-165c0-2 0-9 5-15 3-2 7-5 14-5 13 0 119 0 119 0 5 0 9 4 9 9l0 99c0 1 1 4 2 5 1 1 2 1 4 1l49 0c2 0 5 0 7-2 2-2 2-5 2-5l-1-98c0-2 1-4 3-6 2-2 4-3 6-3l117 0c8 0 13 4 16 6 6 7 6 16 6 16l0 166 59-14c4-1 8 1 10 5 2 3 1 8-2 10z m-100 154l29 0 0-89-29 26z m26-135c-3 0-5 0-7-2-3-2-4-4-4-7l0-177c0-1 0-3-1-3 0-1-2-1-3-1l-108 0 1 88c0 1 0 11-7 18-3 4-9 8-20 8l-49 0c-9 0-15-4-17-7-7-7-7-16-6-18l-1-89c-25 0-100 0-110 0 0 0-1 0-1 0l0 0c0 0 0 1 0 1l0 177c0 3-1 5-4 7-2 2-4 2-7 2l-30-7 208 184 122-110 0-1 1 0 79-72z"/>
<glyph glyph-name="pgsicon-view" unicode="&#57429;" d="M503 267c-1 1-28 32-72 63-59 42-120 65-176 65-57 0-118-23-177-65-44-31-71-62-72-63-5-6-5-14 0-19 1-1 28-32 72-64 59-42 120-64 177-64 56 0 117 22 176 64 44 32 71 63 72 64 5 5 5 13 0 19z m-89-60c-37-27-96-58-159-58-64 0-122 31-160 58-27 20-48 39-59 50 11 12 32 31 59 51 38 26 96 58 160 58 63 0 122-32 159-58 27-20 48-39 59-51-11-11-32-30-59-50z m-85 65c-8 0-14-7-14-15 0-33-27-60-60-60-33 0-60 27-60 60 0 33 27 60 60 60 14 0 28-5 39-15 6-5 15-4 20 2 5 6 5 15-1 20-16 14-37 22-58 22-49 0-89-40-89-89 0-48 40-88 89-88 48 0 88 40 88 88 0 8-6 15-14 15z m-103-15c0-15 13-28 29-28 15 0 28 13 28 28 0 16-13 29-28 29-16 0-29-13-29-29z"/>
<glyph glyph-name="uaeu-icons-01" unicode="&#57430;" d="M251 387c-73 0-132-59-132-131 0-72 59-131 132-131 72 0 131 59 131 131 0 72-59 131-131 131z m-119-131c0 65 53 118 119 118l0-236c-66 0-119 53-119 118z"/>
<glyph glyph-name="uaeu-icons-02" unicode="&#57431;" d="M348 307c-2-3-2-7 0-9 13-13 19-30 19-47 0-18-7-35-20-47-2-3-2-7 0-9 1-2 3-2 5-2 1 0 3 0 4 2 15 14 24 34 24 55 0 22-8 42-23 57-2 2-6 2-9 0z m47 33c-3 2-7 2-10 0-2-3-2-7 0-9 20-20 30-46 30-74 0-27-11-53-31-73-2-2-2-6 0-9 1-1 3-2 5-2 1 0 3 1 4 2 22 22 35 51 35 82 0 31-12 60-33 83z m-116 36l-77-72c-2-1-4-1-6-1l-49 0c-6 0-12-6-12-13l0-74c0-7 6-12 12-12l49 0c2 0 4-1 6-2l77-72c8-5 19 1 19 11l0 225c0 9-10 15-19 10z"/>
<glyph glyph-name="uaeu-icons-03" unicode="&#57432;" d="M371 152l-75 75 0 0c19 20 30 47 30 76 0 64-52 116-116 116-64 0-116-52-116-116 0-64 52-116 116-116 24 0 46 7 64 20 1-1 1-1 1-2l75-74c3-3 7-5 11-5 3 0 7 2 10 5 6 6 6 15 0 21z m-161 53c-54 0-98 44-98 98 0 54 44 98 98 98 54 0 98-44 98-98 0-54-44-98-98-98z"/>
<glyph glyph-name="uaeu-icons-04" unicode="&#57433;" d="M16 503l-6-5-5 5"/>
<glyph glyph-name="uaeu-icons-05" unicode="&#57434;" d="M14 501l0-4-9 0 0 4m4-4l0 4 2 0 0-4m3 4l2 0-6 7-6-7 2 0"/>
<glyph glyph-name="uaeu-icons-06" unicode="&#57435;" d="M307 365l39 0 0 67-6 1c-5 1-25 2-48 2-53 0-86-33-86-87l0-39-53 0 0-75 53 0 0-157 77 0 0 157 52 0 10 75-62 0 0 33c0 16 3 23 24 23z m23-69l-6-49-54 0 0-157-51 0 0 157-53 0 0 49 53 0 0 52c0 47 27 75 73 75 17 0 33-1 41-2l0-43-26 0c-33 0-37-19-37-36l0-46z"/>
<glyph glyph-name="uaeu-icons-07" unicode="&#57436;" d="M418 362c-3 3-6 5-10 5 1 3 2 6 3 9 2 5 0 10-4 14-4 3-10 4-15 1-9-6-20-10-30-13-14 13-33 20-52 20-43 0-78-35-78-78 0 0 0-1 0-1-42 7-81 29-108 62-3 3-6 4-11 5-5-1-9-3-11-7-7-12-10-25-10-39 0-12 2-24 7-34 0 0-1-1-1-1-4-2-7-7-7-12 0-21 9-42 25-57-2-3-3-8-2-11 7-21 21-37 40-46-15-7-31-10-47-10-5 0-10 0-15 1-6 0-11-4-13-9-2-6 0-12 5-15 32-21 69-32 107-32 124 0 198 101 198 198l0 2c11 9 21 20 30 32 3 5 3 12-1 16z m-40-40c-1-1-2-3-2-5l0-5c0-91-69-185-185-185-36 0-70 10-99 30 4-1 9-1 15-1 23 0 46 6 66 18 2 1 3 4 3 6 0 3-2 5-5 6-21 6-38 22-44 43 3 0 5 1 6 4 1 3 0 6-2 7-17 13-27 33-27 54 2 0 3-1 5-2 2-1 6 0 7 2 2 2 2 5 1 8-8 11-13 24-13 38 0 12 3 23 10 33 30-38 76-62 125-67 1 0 3 0 5 2 1 1 2 3 2 5-1 2-1 4-1 7 0 36 29 65 65 65 17 0 34-7 46-18 1-2 3-2 5-2 13 3 26 8 38 14-2-7-6-13-10-19-2-2-2-6 0-8 1-2 4-3 7-2 4 1 8 3 12 4-8-12-18-23-30-32z"/>
<glyph glyph-name="uaeu-icons-08" unicode="&#57437;" d="M371 412l-211 0c-32 0-58-26-58-58l0-196c0-32 26-58 58-58l211 0c32 0 58 26 58 58l0 196c0 32-26 58-58 58z m-211-13l211 0c25 0 45-20 45-45l0-56-89 0c-16 15-38 24-61 24-24 0-45-9-62-24l-89 0 0 56c0 25 20 45 45 45z m106-90c44 0 80-36 80-80 0-45-36-81-80-81-45 0-81 36-81 81 0 44 36 80 81 80z m105-196l-211 0c-25 0-45 20-45 45l0 127 77 0c-12-15-19-35-19-56 0-52 41-93 93-93 51 0 93 41 93 93 0 21-8 41-20 56l77 0 0-127c0-25-20-45-45-45z m-105 65c28 0 50 23 50 51 0 28-22 50-50 50-28 0-51-22-51-50 0-28 23-51 51-51z m0 88c20 0 37-17 37-37 0-21-17-38-37-38-21 0-38 17-38 38 0 20 17 37 38 37z m115 87c0-13-11-24-24-24-13 0-24 11-24 24 0 13 11 24 24 24 13 0 24-11 24-24z"/>
<glyph glyph-name="uaeu-icons-09" unicode="&#57438;" d="M342 271l-95 55c-6 3-12 3-17 0-5-3-9-8-9-14l0-110c0-6 4-12 9-15 2-1 5-2 8-2 3 0 6 1 9 2l95 55c5 3 9 9 9 15 0 6-4 11-9 14z m-6-18l-96-54c-1-1-3-1-4 0-1 0-2 2-2 3l0 110c0 1 1 2 2 3 1 0 1 1 2 1 1 0 2-1 2-1l96-55c1 0 2-2 2-3 0-2-1-3-2-4z m114 68c-2 28-19 58-49 59-44 3-90 4-133 4-43 0-83-1-119-4-27-3-47-35-49-62-4-48-4-76 0-124 2-27 22-59 50-62 42-3 87-4 130-4 44 0 84 1 121 4 28 5 47 36 49 62 4 48 4 79 0 127z m-13-126c-1-21-17-47-37-50-36-3-76-5-120-5-42 0-87 2-129 5-22 3-36 31-38 50-4 47-4 75 0 122 2 22 18 48 38 50 35 3 74 5 117 5 43 0 88-2 132-5 27-1 36-31 37-47 4-47 4-78 0-125z"/>
<glyph glyph-name="uaeu-icons-10" unicode="&#57439;" d="M305 262l-104 0c-3 0-6-2-6-6 0-4 3-6 6-6l97 0c-3-53-48-96-101-96-56 0-102 46-102 102 0 56 46 102 102 102 21 0 41-7 59-19 3-2 7-2 9 1 2 3 1 7-2 9-19 14-42 21-66 21-63 0-115-51-115-114 0-63 52-114 115-114 63 0 114 51 114 114 0 4-3 6-6 6z m157 8l-46 0 0 45c0 4-3 7-6 7-4 0-7-3-7-7l0-45-45 0c-4 0-7-3-7-7 0-3 3-6 7-6l45 0 0-46c0-3 3-6 7-6 3 0 6 3 6 6l0 46 46 0c3 0 6 3 6 6 0 4-3 7-6 7z"/>
<glyph glyph-name="uaeu-icons-11" unicode="&#57440;" d="M407 184c-1 4-5 6-9 7l-4 1c-3 1-7 2-10 3-19 9-33 24-43 46-1 2-1 3 2 4 2 2 4 2 6 3 1 1 3 1 4 2 5 2 9 4 14 6 2 1 4 3 5 4 4 4 6 10 6 15-1 5-4 10-9 13-8 5-16 6-24 2-2-1-4-2-6-2l1 27 0 2c0 9 0 18-3 27-6 23-21 41-42 52-24 12-51 13-78 5-26-8-43-26-53-51-4-11-5-21-5-30 0-9 1-17 1-25l0-7c-2 1-5 1-8 2-8 3-16 2-23-3-5-3-7-8-8-13 0-5 2-10 6-14 5-5 11-7 17-9l4-2c2-1 5-2 8-3 3-2 3-2 2-6-7-15-16-27-28-36-8-6-17-11-28-13-4 0-8-3-10-6-2-3-2-7-1-11 1-3 4-7 6-9 4-3 8-5 11-6 8-3 16-5 24-7l1 0c0-2 1-5 2-8 2-9 8-14 19-12 0 0 2 0 2 0 5 1 10 2 15 2 10 1 19-1 27-7 4-4 9-7 13-10 12-7 25-11 38-11 8 0 16 1 25 4 10 4 19 10 26 15 9 7 19 10 30 9 3 0 6 0 10-1l7-1c1 0 2 0 3 0 4 0 12 2 14 12 1 3 2 5 2 8 2 0 4 1 6 1 9 2 17 4 25 8 3 2 8 5 10 11 2 4 2 8 0 12z m-16-11c-7-4-14-6-22-7-2-1-4-1-6-1-3-1-7-2-9-8-1-4-1-7-2-10-1-2-1-2-3-2l-8 1c-3 0-7 1-10 1-14 1-27-3-39-11-7-6-14-11-22-14-19-6-36-4-52 6-4 3-9 6-13 9-9 7-19 10-30 10-2 0-4 0-5 0-6 0-11-1-18-2-2-1-4-2-5 3-1 3-1 6-2 9-1 3-2 6-7 7l-3 1c-8 2-15 4-23 6-2 0-4 2-7 4 0 0-1 2-1 4 13 2 24 7 34 15 14 10 24 24 31 41 5 10 2 18-8 23-3 1-6 2-9 3l-4 2c-5 1-9 3-12 6-1 2-2 3-2 4 0 2 1 3 3 4 3 3 6 3 11 1 4-1 9-3 15-3 0 0 1 0 2 0 2 0 5 0 6 2 3 3 3 6 2 9l0 10c0 8-1 16-1 24 0 8 0 17 3 25 9 22 24 37 45 43 25 8 48 7 69-4 18-9 30-24 36-43 2-8 2-16 2-24l0-2-1-31c-1-7 5-9 7-9 6-1 12 1 17 3 4 2 8 2 12-1 2-1 3-2 3-3 0-2 0-3-2-5 0 0-1-1-2-2-4-2-8-3-13-5-1-1-2-1-4-2-2-1-5-2-8-3-8-5-10-13-7-21 12-26 28-43 50-52 4-2 8-3 12-4l3-1c0 0 2-2 2-2-1-2-3-3-5-4z"/>
<glyph glyph-name="uaeu-icons-12" unicode="&#57441;" d="M263 113c0-7-6-13-13-13-8 0-14 6-14 13 0 8 6 14 14 14 7 0 13-6 13-14z m48 291c0-4-4-8-8-8-5 0-9 4-9 8 0 5 4 9 9 9 4 0 8-4 8-9z m-48 7l-27 0c-4 0-7-3-7-7 0-3 3-6 7-6l27 0c4 0 6 3 6 6 0 4-2 7-6 7z m61 34l-149 0c-14 0-26-12-26-27l0-315c0-14 12-26 26-26l149 0c14 0 26 12 26 26l0 315c0 15-12 27-26 27z m13-342c0-7-6-13-13-13l-149 0c-7 0-13 6-13 13l0 315c0 8 6 14 13 14l149 0c7 0 13-6 13-14z"/>
<glyph glyph-name="uaeu-icons-13" unicode="&#57442;" d="M251 330c-2 5-10 5-12 0l-67-143c-1-3 0-7 3-9 4-1 7 0 9 4l23 49 76 0 23-49c1-3 3-4 6-4 1 0 2 0 3 0 3 2 4 6 3 9z m-38-86l32 69 32-69z m159 29l-50 0c-3 0-6-3-6-7 0-3 3-6 6-6l50 0c4 0 7 3 7 6 0 4-3 7-7 7z"/>
<glyph glyph-name="uaeu-icons-26" unicode="&#57443;" d="M394 368l-276 0c-11 0-20-9-20-20l0-190c0-12 9-21 20-21l276 0c11 0 20 10 20 21l0 190c0 11-9 20-20 20z m7-210c0-4-4-7-7-7l-276 0c-4 0-7 3-7 7l0 190c0 4 3 7 7 7l276 0c3 0 7-3 7-7z m-36 185l-111-111-107 107c-3 3-7 3-10 0-2-3-2-7 0-9l75-75-73-72c-2-3-2-7 0-10 2-1 3-2 5-2 2 0 3 1 5 2l72 73 28-28c1-1 3-2 5-2 2 0 3 1 5 2l29 30 75-74c1-1 3-2 4-2 2 0 4 1 5 2 3 2 3 7 0 9l-74 74 76 76c3 3 3 7 0 10-3 2-7 2-9 0z"/>
<glyph glyph-name="uaeu-icons-25" unicode="&#57444;" d="M335 188c-14 12-26 17-36 17-13 0-21-8-29-17l-5-3c-3 0-16 4-48 35-32 32-35 45-35 50l3 3c17 16 27 31-1 65-10 13-21 20-32 20-15 0-26-12-35-22l-4-4c-6-6-9-15-9-26 1-27 19-76 71-128 52-51 102-70 129-70 11 0 20 3 25 9l5 4c9 10 21 21 21 37-1 10-7 20-20 30z m-12-55l-5-5c-2-3-8-4-14-4-26 0-72 20-118 65-46 45-66 92-66 117 0 7 1 12 4 15l4 5c8 7 16 16 24 16 6 0 13-4 20-13 21-26 15-32 2-46l-3-2c-3-3-5-8-5-13 0-8 4-23 40-59 36-35 51-39 59-39 5 0 10 2 13 5l3 3c7 7 12 12 18 12 6 0 15-5 27-14 9-7 13-13 13-19 1-8-8-17-16-24z m-75 193c46 0 84-37 84-83 0-5 3-8 7-8 5 0 8 3 8 8 0 54-44 98-99 98-4 0-7-3-7-7 0-5 3-8 7-8z m4 78c-5 0-8-4-8-8 0-4 3-8 8-8 71 0 130-58 130-130 0-4 3-7 7-7 4 0 8 3 8 7 0 80-65 146-145 146z"/>
<glyph glyph-name="uaeu-icons-24" unicode="&#57445;" d="M253 240c0-1 1-1 2-1 0 0 1 0 2 1 1 1 1 2 0 4 0 0-20 39-19 67 0 10 14 21 28 33 14 11 29 23 37 37 20 32-2 63-2 63-1 1-2 2-4 1-1-1-2-2-2-4 1 0 5-20-7-41-5-9-15-16-27-25-18-12-38-26-48-49-19-40 37-84 40-86z m6 66c0-22 9-34 16-43 3-3 5-6 6-9 2-7-3-20-5-24-1-2-1-3 0-4 1 0 2-1 3-1 0 0 1 0 1 1 1 1 30 21 25 44-2 10-7 16-11 22-6 9-10 16-4 28 8 14 44 41 44 41 1 1 2 3 1 4-1 2-2 2-4 2-3-2-72-28-72-61z m-29-108c5 0 11 0 17 1 66 2 90 22 91 23 1 1 2 3 1 4-1 1-2 2-4 2-23-7-66-9-96-9-34 0-51 2-55 4 2 3 16 8 32 12 2 0 3 1 2 3 0 2-1 3-3 3-9 0-57-1-62-16-2-4-1-7 1-10 8-11 35-17 76-17z m110-26c-1-1-2-3-1-4 0-1 1-2 3-2 0 0 0 0 0 0 3 1 67 15 60 52-4 23-18 28-30 28-13 0-26-7-27-7-1-1-1-2-1-4 0-1 1-2 3-2 0 0 29 0 31-17 3-14-27-37-38-44z m-12 4c1 2 0 3-1 3l-15 11c-1 1-2 1-3 1 0 0-16-5-39-7-10-1-20-2-30-2-24 0-39 3-41 5 0 1 0 1 0 1 0 1 2 2 4 3 1 1 2 2 2 4-1 1-3 2-4 2-16-4-23-9-23-16 1-11 28-17 51-19 3 0 7 0 10 0 38 0 87 12 87 12 1 0 2 1 2 2z m-114-21c-1 1-2 2-3 2-2 0-20-1-22-12 0-4 1-7 3-10 7-7 24-12 54-14 4 0 7 0 11 0 37 0 63 12 64 12 1 1 2 2 2 3 0 1-1 2-2 3l-19 12c-1 0-2 0-3 0 0 0-12-3-31-5-3-1-8-1-13-1-18 0-39 3-43 5 0 1 0 1 1 1 1 1 1 3 1 4z m25-70c86 0 133 16 142 25 3 4 3 7 3 9-1 5-5 9-6 9-1 1-3 1-4-1-1-1-1-2 0-4 1 0 1-1-1-3-3-3-39-14-99-17-9 0-17 0-26 0-54 0-93 7-98 11 2 3 16 8 31 10 1 1 2 2 2 4 0 2-2 3-3 3-1 0-2-1-4-1-24-1-52-5-54-17 0-4 1-7 4-10 6-8 25-18 113-18z m155 22c0 0-13-14-52-22-15-3-43-4-83-4-41 0-79 1-80 1-1 1-3-1-3-2 0-2 1-3 2-4 1 0 41-9 96-9 27 0 53 2 77 6 45 8 48 31 48 32 1 1 0 2-1 3-2 0-3 0-4-1z"/>
<glyph glyph-name="uaeu-icons-23" unicode="&#57446;" d="M251 312c0 3-1 7-1 10-1 4-4 6-7 6-4-1-6-4-6-7 0-4 1-7 1-11 4-40-5-70-14-88-21-6-46-19-52-33-2-5-2-10 0-14 2-4 7-7 12-7 13 0 34 15 49 43 8 3 16 4 23 5 9 1 19 1 29 1 18-20 37-32 50-32 7 0 13 4 15 11 1 6 1 11-3 16-9 12-35 16-56 17-21 24-36 54-40 83z m-67-131l0 0c-1 0-1 1 0 3 2 6 14 14 30 21-12-17-25-24-30-24z m70 48c-4-1-9-2-14-3 5 12 9 26 11 43 7-16 15-29 23-39-7 0-14-1-20-1z m83-25c1-1 1-2 1-4-1-1-1-2-3-2-7 0-18 6-31 17 17-2 29-6 33-11z m66 152c0 1 0 2 0 2 0 0 0 0 0 0l0 0-74 72c-1 0-2 0-3 1 0 0-1 0-2 0l-201 0c-4 0-6-2-6-6l0-338c0-4 2-6 6-6l275 0c4 0 7 2 7 6l0 267c0 0-1 0-1 0 0 1 0 2-1 2z m-72 54l51-50-51-1z m61-317l-263 0 0 326 189 0 0-66c0-2 1-3 2-5 1-1 3-1 4-1l68 0z"/>
<glyph glyph-name="uaeu-icons-22" unicode="&#57447;" d="M14 505l0 3-9 0 0-11 9 0 0 3m-6 5l4 0m-1-6l4 5m-7-2l3 0m-3-2l1 0"/>
<glyph glyph-name="uaeu-icons-21" unicode="&#57448;" d="M436 343c0 7-5 12-12 12 0 0 0 0 0 0 0 0 0 0 0 0l-332 0c-6 0-12-5-12-12l0-210 0 0c0-7 6-12 12-12l332 0c7 0 12 5 12 12l0 0 0 210z m-178-136l-161 136 311 0z m-166 123l98-83-97-98z m108-91l54-46c1-1 3-1 4-1 2 0 3 0 4 1l52 48 106-107-325-1z m124 10l99 91 0-191z"/>
<glyph glyph-name="uaeu-icons-20" unicode="&#57449;" d="M250 421c-88 0-159-71-159-159 0-87 71-158 159-158 49 0 95 22 125 61 2 3 2 7-1 9-3 2-7 1-9-1-28-36-70-56-115-56-81 0-146 65-146 145 0 81 65 146 146 146 80 0 146-65 146-146 0-3 3-6 6-6 4 0 7 3 7 6 0 88-72 159-159 159z m-3-257c1 0 1 0 2 0 2 0 4 1 5 4l69 164c1 3 0 5-2 7-2 2-4 3-7 2l-164-68c-3-2-5-5-4-8 0-3 3-5 6-5l90 0 0-90c0-3 2-6 5-6z m-62 109l120 50-50-120 0 64c0 3-3 6-6 6l-64 0z"/>
<glyph glyph-name="uaeu-icons-19" unicode="&#57450;" d="M169 298l38 0 0-28-38 0z m0-47l38 0 0-28-38 0z m0-47l38 0 0-28-38 0z m66 0l38 0 0-28-38 0z m0 47l38 0 0-28-38 0z m0 47l38 0 0-28-38 0z m66-94l38 0 0-28-38 0z m0 47l38 0 0-28-38 0z m0 47l38 0 0-28-38 0z m69 83l-29 0 0 18c0 5-4 9-8 9-5 0-9-4-9-9l0-18-60 0 0 18c0 5-4 9-8 9-5 0-8-4-8-9l0-18-61 0 0 18c0 5-3 9-8 9-5 0-8-4-8-9l0-18-33 0c-18 0-34-15-34-33l0-204c0-18 16-34 34-34l232 0c18 0 34 16 34 34l0 203c0 19-16 34-34 34z m17-237c0-9-8-17-17-17l-232 0c-9 0-17 8-17 17l0 203c0 10 8 18 17 18l33 0 0-14c0-4 3-8 8-8 5 0 8 4 8 8l0 14 61 0 0-14c0-4 3-8 8-8 4 0 8 4 8 8l0 14 60 0 0-14c0-4 4-8 9-8 4 0 8 4 8 8l0 14 29 0c9 0 17-8 17-18l0-203z"/>
<glyph glyph-name="uaeu-icons-18" unicode="&#57451;" d="M340 264l-199 0 99 99c3 3 3 8 0 11-3 3-8 3-11 0l-112-113c-2-1-2-3-2-5 0-2 0-4 2-5l112-113c2-1 4-2 6-2 2 0 4 1 5 2 3 3 3 8 0 11l-99 99 199 0c4 0 8 4 8 8 0 4-4 8-8 8z"/>
<glyph glyph-name="uaeu-icons-17" unicode="&#57452;" d="M349 256c0 2 0 4-2 5l-112 113c-3 3-8 3-11 0-3-3-3-8 0-11l99-99-199 0c-4 0-8-4-8-8 0-4 4-8 8-8l199 0-99-99c-3-3-3-8 0-11 1-1 3-2 5-2 2 0 4 1 6 2l112 113c2 1 2 3 2 5z"/>
<glyph glyph-name="uaeu-icons-16" unicode="&#57453;" d="M18 502c0-4-4-8-8-8-4 0-7 4-7 8 0 4 3 7 7 7 4 0 8-3 8-7z m169-219c0-18-15-33-33-33-19 0-34 15-34 33 0 18 15 33 34 33 18 0 33-15 33-33z m220 0c0-18-15-33-34-33-18 0-33 15-33 33 0 18 15 33 33 33 19 0 34-15 34-33z m-391 217c0-2-3-4-6-4-3 0-5 2-5 4"/>
<glyph glyph-name="uaeu-icons-14" unicode="&#57455;" d="M257 380c-2 5-10 5-12 0l-89-192c-2-3-1-7 3-8 3-2 7-1 8 3l32 67 104 0 32-67c1-3 3-4 6-4 0 0 1 0 2 1 3 1 5 5 3 8z m-52-117l46 100 46-100z m235 39l-36 0 0 36c0 4-3 7-7 7-3 0-6-3-6-7l0-36-37 0c-3 0-6-3-6-7 0-3 3-6 6-6l37 0 0-37c0-3 3-6 6-6 4 0 7 3 7 6l0 37 36 0c4 0 7 3 7 6 0 4-3 7-7 7z"/>
<glyph glyph-name="uaeu-icons-27" unicode="&#57456;" d="M235 380c-37 0-67-30-67-67 0-37 30-68 67-68 37 0 67 31 67 68 0 37-30 67-67 67z m0-123c-31 0-56 25-56 56 0 31 25 56 56 56 31 0 56-25 56-56 0-31-25-56-56-56z m0 180c-71 0-129-58-129-129 0-75 65-152 111-206 1 0 8-9 17-9l1 0c10 0 17 9 17 9 47 54 112 131 112 206 0 71-58 129-129 129z m1-328c0 0-1-1-1-1 0 0-1 1-2 1-41 48-110 128-110 201 0 62 50 112 112 112 62 0 112-50 112-112 0-73-69-153-111-201z"/>
<glyph glyph-name="uaeu-icons-28" unicode="&#57457;" d="M324 213l-159 0c-4 0-7-3-7-7l0-99c0-4 3-6 7-6l159 0c3 0 6 2 6 6l0 99c0 4-3 7-6 7z m-7-100l-146 0 0 87 146 0 0-87z m-132 55l119 0c3 0 6 3 6 6 0 4-3 7-6 7l-119 0c-4 0-7-3-7-7 0-3 3-6 7-6z m0-25l119 0c3 0 6 3 6 7 0 3-3 6-6 6l-119 0c-4 0-7-3-7-6 0-4 3-7 7-7z m-20 156l159 0c3 0 6 3 6 7l0 99c0 3-3 6-6 6l-159 0c-4 0-7-3-7-6l0-99c0-4 3-7 7-7z m6 100l146 0 0-87-146 0z m192-47l-19 0c-4 0-7-3-7-7l0-53-186 0 0 53c0 4-3 7-6 7l-20 0c-23 0-46-23-46-46l0-100c0-23 23-46 46-46l20 0c3 0 6 3 6 7l0 53 186 0 0-53c0-4 3-7 7-7l19 0c24 0 47 23 47 46l0 100c0 23-23 46-47 46z m34-146c0-16-17-33-34-33l-13 0 0 53c0 4-3 7-6 7l-199 0c-4 0-7-3-7-7l0-53-13 0c-16 0-33 17-33 33l0 100c0 16 17 33 33 33l13 0 0-53c0-4 3-7 7-7l199 0c3 0 6 3 6 7l0 53 13 0c17 0 34-17 34-33l0-100z"/>
<glyph glyph-name="uaeu-icons-29" unicode="&#57458;" d="M384 144c25 29 41 67 41 108 0 40-15 77-40 106 0 0 0 0 0 0 0 0-1 0-1 0-29 34-73 56-121 56-48 0-92-22-122-56 0 0 0 0 0 0 0 0 0 0 0 0-25-29-40-66-40-106 0-41 16-79 41-108 0 0 0 0 0 0 0 0 1 0 1 0 30-33 72-54 120-54 47 0 89 20 119 52 0 1 1 1 2 2 0 0 0 0 0 0z m-269 101l57 0c0-27 5-52 11-74-12-4-23-9-34-15-20 24-33 55-34 89z m33 101c10-6 22-12 35-16-7-21-11-46-11-72l-57 0c1 33 13 64 33 88z m263-88l-57 0c-1 26-4 51-11 72 13 4 24 10 35 16 20-24 32-55 33-88z m-155-74c-21-1-41-3-60-8-6 20-10 44-11 69l71 0z m0-13l0-67c-23 3-43 26-56 59 18 5 37 7 56 8z m14 0c19-1 38-3 55-8-13-33-33-56-55-59z m0 13l0 61 71 0c-1-25-5-49-11-69-19 5-39 7-60 8z m71 74l-71 0 0 59c21 1 42 3 61 9 6-20 9-43 10-68z m-71 72l0 70c23-4 43-28 56-62-17-5-37-7-56-8z m-14 70l0-70c-20 1-39 3-56 8 13 35 33 58 56 62z m0-83l0-59-71 0c1 25 4 48 10 68 19-6 40-8 61-9z m-68-158c8-20 18-37 30-49-22 7-43 20-59 36 9 5 18 9 29 13z m150 0c11-4 20-8 29-13-16-16-37-29-59-36 12 12 22 29 30 49z m4 12c7 22 11 47 12 74l57 0c-1-34-14-65-35-89-10 6-21 11-34 15z m27 185c-9-5-19-10-30-13-8 21-19 38-32 50 24-7 45-20 62-37z m-151 37c-12-12-23-29-31-50-11 3-21 8-30 13 17 17 38 30 61 37z"/>
<glyph glyph-name="uaeu-icons-30" unicode="&#57459;" d="M151 82c-2 0-5 1-7 3-4 3-4 10 0 13l124 138-124 137c-4 4-4 10 0 13 4 4 10 4 14 0l130-144c4-4 4-9 0-13l-130-143c-2-3-5-4-7-4z"/>
<glyph glyph-name="uaeu-icons-31" unicode="&#57460;" d="M182 261l125 137c3 4 3 10-1 14-4 3-10 3-14-1l-130-143c-3-4-3-10 0-13l130-144c2-2 5-3 8-3 2 0 4 1 6 3 4 3 4 9 1 13z"/>
<glyph glyph-name="uaeu-icons-32" unicode="&#57461;" d="M271 313l137-124c4-4 10-3 14 1 4 4 3 10-1 13l-143 130c-4 4-9 4-13 0l-144-130c-2-2-3-4-3-7 0-2 1-5 3-6 3-4 9-5 13-1z"/>
<glyph glyph-name="uaeu-icons-33" unicode="&#57462;" d="M256 191l-137 124c-4 4-10 3-14 0-3-4-3-10 1-14l144-130c3-4 9-4 12 0l144 130c2 2 3 4 3 7 0 2-1 5-2 7-4 3-10 4-14 0z"/>
<glyph glyph-name="uaeu-icons-34" unicode="&#57463;" d="M193 323c0 0-1 0-1 0-1 0-1 0-2 0-1 0-4-1-6-2-6-3-12-6-17-9-13-9-23-22-30-38 0-2-1-5-2-7 0-2-1-5-1-7-1-2-1-4-1-5 0-2-1-4-1-5l0-6c0-1 0-2 0-4 0-1 0-3 0-4l0-48c0-6 0-11 1-15 0-5 3-8 8-9 2-1 4-1 7-1 2 0 5 0 8 0l27 0c4 0 8 0 11 1 3 0 6 1 7 4 2 2 3 4 3 8 0 3 0 6 0 10l0 31c0 3 0 6 0 9 0 3-1 6-2 8-1 4-4 6-7 6-3 0-6 0-11 1-1 1-2 1-2 1-1 0-2 0-3 0-4 1-6 4-7 9-1 3-1 5 0 8 1 2 1 4 2 6 2 4 4 7 6 11 2 3 4 6 7 8 3 2 6 4 9 6 3 2 5 5 7 9 0 1 1 3 1 5-1 1-1 3 0 4 0 5 0 8-2 11-2 3-5 5-9 4z m119-91c-1 5-4 7-9 8-1 1-3 1-6 1-1 0-3 0-4 0-1 0-3 0-4 1-4 1-7 4-8 8-1 3-1 6 0 9 1 3 2 5 3 7 1 4 3 7 5 10 2 3 4 6 7 8 3 2 6 4 9 6 3 2 5 5 7 9 0 1 1 2 1 3-1 1-1 2 0 4 0 2 0 3 0 5 0 2 0 4-1 5-1 5-4 7-9 7-1 0-2 0-2 0 0 0-1 0-2 0-2 0-4-1-5-2-7-3-13-6-18-9-8-6-16-13-21-21-5-9-9-19-12-31 0-1 0-2-1-3 0-1 0-2 0-3-1-4-1-7-1-9l0-5c0-1 0-2 0-3 0-2 0-3 0-4l0-40c0-2 0-4 0-6 0-3 0-5 0-7l0-5c1-2 2-5 2-7 1-2 3-3 5-4 2-1 5-1 7-1 3 0 5 0 8 0l24 0c2 0 4 0 6 0 2 0 4 0 6 0l2 0c2 0 4 1 5 1 2 1 3 2 4 3 1 2 2 4 3 7 0 4 0 7 0 11l0 30c0 3 0 6 0 9 0 3 0 6-1 8z"/>
<glyph glyph-name="uaeu-icons-35" unicode="&#57464;" d="M204 274c0 2 0 4 0 6l0 5c-1 3-2 5-2 7-1 2-3 3-5 4-2 1-5 1-7 1-3 0-5 0-8 0l-24 0c-2 0-4 0-6 1-2 0-4 0-6-1l-3 0c-1 0-3 0-4-1-2 0-3-1-4-2-1-2-2-5-2-8-1-3-1-7-1-11l0-30c0-3 0-6 0-9 0-3 0-5 1-8 1-4 4-7 9-8 1 0 3 0 6 0 1-1 3-1 4-1 1 0 3 0 4-1 4-1 7-3 8-8 1-2 1-5 0-8-1-3-2-6-3-8-1-3-3-7-5-10-2-3-4-5-7-7-3-3-6-5-9-7-3-2-5-5-7-8 0-1-1-2-1-3 1-1 1-3 0-4 0-2 0-4 0-6 0-2 0-3 1-4 1-5 4-8 9-8 1 0 2 1 2 0 0 0 1 0 2 0 2 1 4 1 5 2 7 3 13 6 18 9 8 6 16 13 21 22 5 8 9 18 12 30 0 1 0 2 1 3 0 2 0 3 0 4 1 3 1 6 1 8l0 5c0 1 0 2 0 4 0 1 0 2 0 4l0 39c0 2 0 4 0 7z m109-49l0 47c0 6 0 12-1 16 0 4-3 7-8 9-2 1-4 1-7 1-2-1-5-1-8-1l-27 0c-4 0-8 0-11 0-3-1-6-2-7-4-2-2-3-5-3-8 0-3 0-7 0-10l0-31c0-4 0-7 0-10 0-3 1-5 2-8 1-4 4-5 7-5 3 0 6-1 11-2 1 0 2 0 3 0 0 0 1 0 2-1 4-1 6-4 7-9 1-2 1-5 0-7-1-3-1-5-2-7-2-3-4-7-6-10-2-4-4-7-7-9-3-2-6-4-9-6-3-2-5-5-7-8 0-2-1-4-1-5 1-2 1-3 0-5 0-4 0-8 2-11 2-3 5-4 9-4 0 0 1 1 1 0 1 0 1 0 2 0 1 1 3 1 6 2 6 3 12 6 17 9 13 9 23 22 30 38 0 3 1 5 2 7 0 3 1 5 1 8 1 1 1 3 1 5 0 1 1 3 1 5l0 5c0 1 0 3 0 4 0 2 0 3 0 5z"/>
</font>
</defs>
</svg>
